<?xml version="1.0" standalone="no"?>
<!DOCTYPE svg PUBLIC "-//W3C//DTD SVG 1.1//EN" "http://www.w3.org/Graphics/SVG/1.1/DTD/svg11.dtd" >
<svg xmlns="http://www.w3.org/2000/svg">
<defs>
  <font id="flaticon" horiz-adv-x="300.0031468971594">
    <font-face font-family="flaticon"
      units-per-em="300" ascent="300"
      descent="0" />
    <missing-glyph horiz-adv-x="0" />
    <glyph glyph-name="001-right-arrow"
      unicode="&#xF101;"
      horiz-adv-x="300" d="M296.562890625 158.2951171875C296.5593750000001 158.2986328125 296.5564453125 158.302734375 296.5523437500001 158.30625L235.31953125 219.24375C230.7322265625 223.8087890625 223.3125 223.791796875 218.7462890625 219.20390625C214.1806640625 214.6166015625 214.1982421875 207.196875 218.785546875 202.63125L259.897265625 161.71875H11.71875C5.246484375 161.71875 0 156.472265625 0 150C0 143.527734375 5.246484375 138.28125 11.71875 138.28125H259.8966796875L218.7861328125 97.36875C214.198828125 92.803125 214.18125 85.3833984375 218.746875 80.79609375C223.3130859375 76.2076171875 230.7333984375 76.191796875 235.3201171875 80.75625L296.5529296875 141.69375C296.5564453125 141.697265625 296.5593750000001 141.7013671875 296.5634765625 141.7048828125C301.153125 146.2857421875 301.1384765625 153.7294921875 296.562890625 158.2951171875z" />
    <glyph glyph-name="001-right-arrow-1"
      unicode="&#x30;&#x30;&#x31;&#x2D;&#x72;&#x69;&#x67;&#x68;&#x74;&#x2D;&#x61;&#x72;&#x72;&#x6F;&#x77;"
      horiz-adv-x="300" d="M296.562890625 158.2951171875C296.5593750000001 158.2986328125 296.5564453125 158.302734375 296.5523437500001 158.30625L235.31953125 219.24375C230.7322265625 223.8087890625 223.3125 223.791796875 218.7462890625 219.20390625C214.1806640625 214.6166015625 214.1982421875 207.196875 218.785546875 202.63125L259.897265625 161.71875H11.71875C5.246484375 161.71875 0 156.472265625 0 150C0 143.527734375 5.246484375 138.28125 11.71875 138.28125H259.8966796875L218.7861328125 97.36875C214.198828125 92.803125 214.18125 85.3833984375 218.746875 80.79609375C223.3130859375 76.2076171875 230.7333984375 76.191796875 235.3201171875 80.75625L296.5529296875 141.69375C296.5564453125 141.697265625 296.5593750000001 141.7013671875 296.5634765625 141.7048828125C301.153125 146.2857421875 301.1384765625 153.7294921875 296.562890625 158.2951171875z" />
    <glyph glyph-name="002-next"
      unicode="&#xF102;"
      horiz-adv-x="300" d="M227.5918844067016 158.2323897172277L88.8330514333929 296.6074351272066C84.2867801297651 301.1384721153433 76.9262620067891 301.1308549575978 72.3876078609068 296.5839977187589C67.8524693262917 292.0377264151312 67.8641880305155 284.6731067456768 72.4110452693544 280.1385541462729L202.9105355057207 149.9994140647888L72.4063577876649 19.8608599185159C67.8600864840372 15.3257213839008 67.8483677798134 7.9657891961359 72.3829203792173 3.418931957297C74.6581068042703 1.1396439857657 77.6387592235968 0 80.6194116429233 0C83.5924469045043 0 86.561380619607 1.1320268280202 88.8324654981817 3.3954945488495L227.5918844067015 141.7670243475612C229.7815242909208 143.9455314627678 231.0102304287874 146.9103636313921 231.0102304287874 149.9994140647889S229.7780086796536 156.0497810555428 227.5918844067016 158.2323897172277z" />
    <glyph glyph-name="002-next-1"
      unicode="&#x30;&#x30;&#x32;&#x2D;&#x6E;&#x65;&#x78;&#x74;"
      horiz-adv-x="300" d="M227.5918844067016 158.2323897172277L88.8330514333929 296.6074351272066C84.2867801297651 301.1384721153433 76.9262620067891 301.1308549575978 72.3876078609068 296.5839977187589C67.8524693262917 292.0377264151312 67.8641880305155 284.6731067456768 72.4110452693544 280.1385541462729L202.9105355057207 149.9994140647888L72.4063577876649 19.8608599185159C67.8600864840372 15.3257213839008 67.8483677798134 7.9657891961359 72.3829203792173 3.418931957297C74.6581068042703 1.1396439857657 77.6387592235968 0 80.6194116429233 0C83.5924469045043 0 86.561380619607 1.1320268280202 88.8324654981817 3.3954945488495L227.5918844067015 141.7670243475612C229.7815242909208 143.9455314627678 231.0102304287874 146.9103636313921 231.0102304287874 149.9994140647889S229.7780086796536 156.0497810555428 227.5918844067016 158.2323897172277z" />
    <glyph glyph-name="003-left-arrow"
      unicode="&#xF103;"
      horiz-adv-x="300" d="M288.28125 161.71875H40.102734375L81.214453125 202.63125C85.8017578125 207.196875 85.8193359375 214.6166015625 81.2537109375 219.20390625C76.6880859375 223.791796875 69.2677734375 223.8087890625 64.68046875 219.24375L3.44765625 158.30625C3.4435546875 158.302734375 3.440625 158.2986328125 3.437109375 158.2951171875C-1.1384765625 153.7294921875 -1.153125 146.2857421875 3.4359375 141.7048828125C3.4400390625 141.7013671875001 3.44296875 141.697265625 3.446484375 141.69375L64.679296875 80.75625C69.266015625 76.191796875 76.686328125 76.2076171875 81.2525390625 80.79609375C85.8181640625 85.3833984375 85.8005859375 92.803125 81.21328125 97.36875L40.102734375 138.28125H288.28125C294.753515625 138.28125 300 143.527734375 300 150C300 156.472265625 294.753515625 161.71875 288.28125 161.71875z" />
    <glyph glyph-name="003-left-arrow-1"
      unicode="&#x30;&#x30;&#x33;&#x2D;&#x6C;&#x65;&#x66;&#x74;&#x2D;&#x61;&#x72;&#x72;&#x6F;&#x77;"
      horiz-adv-x="300" d="M288.28125 161.71875H40.102734375L81.214453125 202.63125C85.8017578125 207.196875 85.8193359375 214.6166015625 81.2537109375 219.20390625C76.6880859375 223.791796875 69.2677734375 223.8087890625 64.68046875 219.24375L3.44765625 158.30625C3.4435546875 158.302734375 3.440625 158.2986328125 3.437109375 158.2951171875C-1.1384765625 153.7294921875 -1.153125 146.2857421875 3.4359375 141.7048828125C3.4400390625 141.7013671875001 3.44296875 141.697265625 3.446484375 141.69375L64.679296875 80.75625C69.266015625 76.191796875 76.686328125 76.2076171875 81.2525390625 80.79609375C85.8181640625 85.3833984375 85.8005859375 92.803125 81.21328125 97.36875L40.102734375 138.28125H288.28125C294.753515625 138.28125 300 143.527734375 300 150C300 156.472265625 294.753515625 161.71875 288.28125 161.71875z" />
    <glyph glyph-name="004-right-arrow-1"
      unicode="&#xF104;"
      horiz-adv-x="300" d="M217.7214817739121 232.2782032409867L204.3585538404034 218.9146453372756L263.8233311564363 159.4492380510402L0 159.4492380510402L0 140.5501319787574L263.8233311564363 140.5501319787574L204.3585538404034 81.0853546627245L217.7214817739121 67.7217967590133L300 150.0003149851012z" />
    <glyph glyph-name="004-right-arrow-1-1"
      unicode="&#x30;&#x30;&#x34;&#x2D;&#x72;&#x69;&#x67;&#x68;&#x74;&#x2D;&#x61;&#x72;&#x72;&#x6F;&#x77;&#x2D;&#x31;"
      horiz-adv-x="300" d="M217.7214817739121 232.2782032409867L204.3585538404034 218.9146453372756L263.8233311564363 159.4492380510402L0 159.4492380510402L0 140.5501319787574L263.8233311564363 140.5501319787574L204.3585538404034 81.0853546627245L217.7214817739121 67.7217967590133L300 150.0003149851012z" />
    <glyph glyph-name="005-left-arrow-1"
      unicode="&#xF105;"
      horiz-adv-x="300" d="M97.0589826839827 149.9303300865801L227.4255952380953 280.2969426406927C231.9324945887446 284.8045183982684 231.9324945887446 292.1124188311689 227.4255952380953 296.6199945887446C222.9173430735931 301.1262175324676 215.610119047619 301.1262175324676 211.1025432900433 296.6199945887446L72.5744047619048 158.091856060606C68.0681818181818 153.5842803030303 68.0681818181818 146.2763798701299 72.5744047619048 141.7688041125541L211.1025432900433 3.2406655844155C215.6885822510823 -1.188446969697 222.9964826839827 -1.0612824675325 227.4255952380953 3.5247564935065C231.7458062770563 7.9985119047619 231.7458062770563 15.0906385281385 227.4255952380953 19.5637175324675L97.0589826839827 149.9303300865801z" />
    <glyph glyph-name="005-left-arrow-1-1"
      unicode="&#x30;&#x30;&#x35;&#x2D;&#x6C;&#x65;&#x66;&#x74;&#x2D;&#x61;&#x72;&#x72;&#x6F;&#x77;&#x2D;&#x31;"
      horiz-adv-x="300" d="M97.0589826839827 149.9303300865801L227.4255952380953 280.2969426406927C231.9324945887446 284.8045183982684 231.9324945887446 292.1124188311689 227.4255952380953 296.6199945887446C222.9173430735931 301.1262175324676 215.610119047619 301.1262175324676 211.1025432900433 296.6199945887446L72.5744047619048 158.091856060606C68.0681818181818 153.5842803030303 68.0681818181818 146.2763798701299 72.5744047619048 141.7688041125541L211.1025432900433 3.2406655844155C215.6885822510823 -1.188446969697 222.9964826839827 -1.0612824675325 227.4255952380953 3.5247564935065C231.7458062770563 7.9985119047619 231.7458062770563 15.0906385281385 227.4255952380953 19.5637175324675L97.0589826839827 149.9303300865801z" />
    <glyph glyph-name="006-search-interface-symbol"
      unicode="&#xF106;"
      horiz-adv-x="300" d="M297.1564190127612 16.3213019395108L219.7013120700642 92.5386840084312C239.9843139817977 114.5755788304113 252.4468554435385 143.7197104622474 252.4468554435385 175.7897746768844C252.4370516821621 244.3935556608552 195.9301318605905 300 126.2199964052875 300C56.5098609499845 300 0.0029411284129 244.3935556608552 0.0029411284129 175.7897746768844S56.5098609499845 51.5795493537687 126.2199964052875 51.5795493537687C156.3396022940802 51.5795493537687 183.9646411006356 61.9975163804513 205.663796343197 79.3173314161533L283.4193885720822 2.7994640610448C287.2080521560106 -0.932827894969 293.3589320435941 -0.932827894969 297.1475956275225 2.7994640610448C300.9450825966896 6.5312658289897 300.9450825966896 12.589009983497 297.1564190127612 16.3213019395108zM126.2199964052875 70.690021404879C67.2376268361628 70.690021404879 19.423212039019 117.7446446953481 19.423212039019 175.7897746768844S67.2376268361628 280.8895279488898 126.2199964052875 280.8895279488898C185.202856162481 280.8895279488898 233.016780771556 233.8349046584206 233.016780771556 175.7897746768844S185.202856162481 70.690021404879 126.2199964052875 70.690021404879z" />
    <glyph glyph-name="006-search-interface-symbol-1"
      unicode="&#x30;&#x30;&#x36;&#x2D;&#x73;&#x65;&#x61;&#x72;&#x63;&#x68;&#x2D;&#x69;&#x6E;&#x74;&#x65;&#x72;&#x66;&#x61;&#x63;&#x65;&#x2D;&#x73;&#x79;&#x6D;&#x62;&#x6F;&#x6C;"
      horiz-adv-x="300" d="M297.1564190127612 16.3213019395108L219.7013120700642 92.5386840084312C239.9843139817977 114.5755788304113 252.4468554435385 143.7197104622474 252.4468554435385 175.7897746768844C252.4370516821621 244.3935556608552 195.9301318605905 300 126.2199964052875 300C56.5098609499845 300 0.0029411284129 244.3935556608552 0.0029411284129 175.7897746768844S56.5098609499845 51.5795493537687 126.2199964052875 51.5795493537687C156.3396022940802 51.5795493537687 183.9646411006356 61.9975163804513 205.663796343197 79.3173314161533L283.4193885720822 2.7994640610448C287.2080521560106 -0.932827894969 293.3589320435941 -0.932827894969 297.1475956275225 2.7994640610448C300.9450825966896 6.5312658289897 300.9450825966896 12.589009983497 297.1564190127612 16.3213019395108zM126.2199964052875 70.690021404879C67.2376268361628 70.690021404879 19.423212039019 117.7446446953481 19.423212039019 175.7897746768844S67.2376268361628 280.8895279488898 126.2199964052875 280.8895279488898C185.202856162481 280.8895279488898 233.016780771556 233.8349046584206 233.016780771556 175.7897746768844S185.202856162481 70.690021404879 126.2199964052875 70.690021404879z" />
    <glyph glyph-name="007-loupe"
      unicode="&#xF107;"
      horiz-adv-x="300" d="M132.113671875 300C59.2681640625 300 0 240.7318359375 0 167.886328125C0 95.03671875 59.2681640625 35.77265625 132.113671875 35.77265625C204.96328125 35.77265625 264.22734375 95.03671875 264.22734375 167.886328125C264.22734375 240.7318359375 204.96328125 300 132.113671875 300zM132.113671875 60.1623046875C72.7154296875 60.1623046875 24.390234375 108.4875 24.390234375 167.8857421875S72.7154296875 275.609765625 132.113671875 275.609765625S239.837109375 227.2845703125 239.837109375 167.886328125S191.5119140625 60.1623046875 132.113671875 60.1623046875zM296.426953125 20.8171875L226.508203125 90.7359375C221.7439453125 95.5001953125 214.0283203125 95.5001953125 209.2640625 90.7359375C204.4998046875 85.97578125 204.4998046875 78.251953125 209.2640625 73.491796875L279.1828125 3.573046875C281.5646484375 1.1912109375 284.6830078125 0 287.8048828125 0C290.92265625 0 294.04453125 1.1912109375 296.426953125 3.573046875C301.1912109375 8.333203125 301.1912109375 16.05703125 296.426953125 20.8171875z" />
    <glyph glyph-name="007-loupe-1"
      unicode="&#x30;&#x30;&#x37;&#x2D;&#x6C;&#x6F;&#x75;&#x70;&#x65;"
      horiz-adv-x="300" d="M132.113671875 300C59.2681640625 300 0 240.7318359375 0 167.886328125C0 95.03671875 59.2681640625 35.77265625 132.113671875 35.77265625C204.96328125 35.77265625 264.22734375 95.03671875 264.22734375 167.886328125C264.22734375 240.7318359375 204.96328125 300 132.113671875 300zM132.113671875 60.1623046875C72.7154296875 60.1623046875 24.390234375 108.4875 24.390234375 167.8857421875S72.7154296875 275.609765625 132.113671875 275.609765625S239.837109375 227.2845703125 239.837109375 167.886328125S191.5119140625 60.1623046875 132.113671875 60.1623046875zM296.426953125 20.8171875L226.508203125 90.7359375C221.7439453125 95.5001953125 214.0283203125 95.5001953125 209.2640625 90.7359375C204.4998046875 85.97578125 204.4998046875 78.251953125 209.2640625 73.491796875L279.1828125 3.573046875C281.5646484375 1.1912109375 284.6830078125 0 287.8048828125 0C290.92265625 0 294.04453125 1.1912109375 296.426953125 3.573046875C301.1912109375 8.333203125 301.1912109375 16.05703125 296.426953125 20.8171875z" />
    <glyph glyph-name="008-loupe-1"
      unicode="&#xF108;"
      horiz-adv-x="300" d="M296.3344107967696 21.3384634915674L211.0227439185164 106.6501303698206C227.5477778537319 127.0622357203543 237.4974853761194 152.9996777375221 237.4974853761194 181.2492065507173C237.4974853761194 246.7235671526646 184.2228103241179 299.998242204666 118.7484497221707 299.998242204666S0 246.7241530844426 0 181.2497924824953S53.2746750520015 62.5007568285466 118.7490356539487 62.5007568285466C146.9985644671439 62.5007568285466 172.9360064843117 72.4504643509341 193.3481118348454 88.9754982861495L278.6597787130985 3.6638314078963C281.09725490962 1.2263552113748 284.2970283493325 0.001171863556 287.4973877208231 0.001171863556S293.8975205320261 1.2263552113748 296.3349967285476 3.6638314078963C301.2222536889289 8.5510883682776 301.2222536889289 16.4512065311862 296.3344107967696 21.3384634915674zM118.7490356539487 87.5007080008984C67.0493452212381 87.5007080008984 24.9999511723518 129.5501020497847 24.9999511723518 181.2497924824953S67.0493452212381 274.9988769640922 118.7490356539487 274.9988769640922S212.4981201355456 232.9494829152059 212.4981201355456 181.2497924824953S170.4481401548813 87.5007080008984 118.7490356539487 87.5007080008984z" />
    <glyph glyph-name="008-loupe-1-1"
      unicode="&#x30;&#x30;&#x38;&#x2D;&#x6C;&#x6F;&#x75;&#x70;&#x65;&#x2D;&#x31;"
      horiz-adv-x="300" d="M296.3344107967696 21.3384634915674L211.0227439185164 106.6501303698206C227.5477778537319 127.0622357203543 237.4974853761194 152.9996777375221 237.4974853761194 181.2492065507173C237.4974853761194 246.7235671526646 184.2228103241179 299.998242204666 118.7484497221707 299.998242204666S0 246.7241530844426 0 181.2497924824953S53.2746750520015 62.5007568285466 118.7490356539487 62.5007568285466C146.9985644671439 62.5007568285466 172.9360064843117 72.4504643509341 193.3481118348454 88.9754982861495L278.6597787130985 3.6638314078963C281.09725490962 1.2263552113748 284.2970283493325 0.001171863556 287.4973877208231 0.001171863556S293.8975205320261 1.2263552113748 296.3349967285476 3.6638314078963C301.2222536889289 8.5510883682776 301.2222536889289 16.4512065311862 296.3344107967696 21.3384634915674zM118.7490356539487 87.5007080008984C67.0493452212381 87.5007080008984 24.9999511723518 129.5501020497847 24.9999511723518 181.2497924824953S67.0493452212381 274.9988769640922 118.7490356539487 274.9988769640922S212.4981201355456 232.9494829152059 212.4981201355456 181.2497924824953S170.4481401548813 87.5007080008984 118.7490356539487 87.5007080008984z" />
    <glyph glyph-name="009-quote"
      unicode="&#xF109;"
      horiz-adv-x="300" d="M0 150V21.4283620087272H128.5716379912728V150H42.8574569869092C42.8574569869092 197.2618704403192 81.3097675509536 235.7141810043636 128.5716379912728 235.7141810043636V278.5716379912728C57.6729685751563 278.5716379912728 0 220.8986694161166 0 150zM300 235.7141810043636V278.5716379912728C229.1013305838834 278.5716379912728 171.4283620087272 220.8986694161166 171.4283620087272 150V21.4283620087272H300V150H214.2858189956364C214.2858189956364 197.2618704403192 252.7381295596808 235.7141810043636 300 235.7141810043636z" />
    <glyph glyph-name="009-quote-1"
      unicode="&#x30;&#x30;&#x39;&#x2D;&#x71;&#x75;&#x6F;&#x74;&#x65;"
      horiz-adv-x="300" d="M0 150V21.4283620087272H128.5716379912728V150H42.8574569869092C42.8574569869092 197.2618704403192 81.3097675509536 235.7141810043636 128.5716379912728 235.7141810043636V278.5716379912728C57.6729685751563 278.5716379912728 0 220.8986694161166 0 150zM300 235.7141810043636V278.5716379912728C229.1013305838834 278.5716379912728 171.4283620087272 220.8986694161166 171.4283620087272 150V21.4283620087272H300V150H214.2858189956364C214.2858189956364 197.2618704403192 252.7381295596808 235.7141810043636 300 235.7141810043636z" />
    <glyph glyph-name="010-quote-1"
      unicode="&#xF10A;"
      horiz-adv-x="300" d="M171.4283620087272 278.5716379912728V150H257.1425430130909C257.1425430130909 102.7381295596808 218.6902324490464 64.2858189956364 171.4283620087272 64.2858189956364V21.4283620087272C242.3270314248438 21.4283620087272 300 79.1013305838835 300 150V278.5716379912728zM0 150H85.7141810043636C85.7141810043636 102.7381295596809 47.2618704403192 64.2858189956364 0 64.2858189956364V21.4283620087272C70.8986694161165 21.4283620087272 128.5716379912728 79.1013305838835 128.5716379912728 150V278.5716379912728H0z" />
    <glyph glyph-name="010-quote-1-1"
      unicode="&#x30;&#x31;&#x30;&#x2D;&#x71;&#x75;&#x6F;&#x74;&#x65;&#x2D;&#x31;"
      horiz-adv-x="300" d="M171.4283620087272 278.5716379912728V150H257.1425430130909C257.1425430130909 102.7381295596808 218.6902324490464 64.2858189956364 171.4283620087272 64.2858189956364V21.4283620087272C242.3270314248438 21.4283620087272 300 79.1013305838835 300 150V278.5716379912728zM0 150H85.7141810043636C85.7141810043636 102.7381295596809 47.2618704403192 64.2858189956364 0 64.2858189956364V21.4283620087272C70.8986694161165 21.4283620087272 128.5716379912728 79.1013305838835 128.5716379912728 150V278.5716379912728H0z" />
    <glyph glyph-name="011-right-quote-sign"
      unicode="&#xF10B;"
      horiz-adv-x="300" d="M284.6159526417486 282.4015728650019H191.0809447035802C182.5889505618254 282.4015728650019 175.6968973453288 275.5095196485053 175.6968973453288 267.0175255067506V173.4825175685821C175.6968973453288 164.9902157458802 182.5889505618254 158.0984702103307 191.0809447035802 158.0984702103307H235.8485225160917C235.2639287164782 133.6067591350473 229.5718311939252 114.0077904815822 218.8029980431492 99.2698731123774C210.3110039013944 87.6395333095394 197.4502479908434 78.009119663274 180.2505753633712 70.4094002682978C172.34317502123 66.932605565333 168.9279165076982 57.5791047715161 172.6200878736785 49.7637010325773L183.6966019716195 26.3799490480352C187.2657009587339 18.8728416181557 196.0961441423701 15.5803478025427 203.7266316320628 18.8728416181557C224.0951103343877 27.6725167070755 241.2947829618599 38.8105669944495 255.324726471638 52.3485286697107C272.4320948149607 68.8709955324727 284.1544312210011 87.5164609306733 290.4926587326006 108.3156929590292C296.8311939251474 129.1149249873851 300 157.4831083160007 300 193.4817791343089V267.0175255067506C300 275.5092119675582 293.1076391025562 282.4015728650019 284.6159526417486 282.4015728650019zM32.6252569135909 18.9343778075886C52.7475908581837 27.7032848017919 69.8546515205593 38.8410274082188 83.977206995434 52.3485286697107C101.2381081313921 68.8709955324727 113.0222884078127 87.4549247412404 119.3605159194122 108.1003162960137C125.6987434310118 128.7457078507871 128.8675495058644 157.2061954635522 128.8675495058644 193.4817791343089V267.0175255067506C128.8675495058644 275.5095196485053 121.975803970315 282.4015728650019 113.483502147613 282.4015728650019H19.9484942094446C11.4565000676898 282.4015728650019 4.5644468511932 275.5095196485053 4.5644468511932 267.0175255067506V173.4825175685821C4.5644468511932 164.9902157458802 11.4565000676898 158.0984702103307 19.9484942094446 158.0984702103307H64.7160720219561C64.1314782223426 133.6067591350474 58.4393806997896 114.0077904815823 47.6705475490136 99.2698731123774C39.1785534072588 87.6395333095394 26.3174898157607 78.009119663274 9.1181248692356 70.4094002682978C1.2107245270944 66.932605565333 -2.2045339864374 57.5791047715161 1.4876373795429 49.7637010325773L12.5333833827674 26.4414852374682C16.1027900508289 18.9343778075886 24.9947694238982 15.6111158972592 32.6252569135909 18.9343778075886z" />
    <glyph glyph-name="011-right-quote-sign-1"
      unicode="&#x30;&#x31;&#x31;&#x2D;&#x72;&#x69;&#x67;&#x68;&#x74;&#x2D;&#x71;&#x75;&#x6F;&#x74;&#x65;&#x2D;&#x73;&#x69;&#x67;&#x6E;"
      horiz-adv-x="300" d="M284.6159526417486 282.4015728650019H191.0809447035802C182.5889505618254 282.4015728650019 175.6968973453288 275.5095196485053 175.6968973453288 267.0175255067506V173.4825175685821C175.6968973453288 164.9902157458802 182.5889505618254 158.0984702103307 191.0809447035802 158.0984702103307H235.8485225160917C235.2639287164782 133.6067591350473 229.5718311939252 114.0077904815822 218.8029980431492 99.2698731123774C210.3110039013944 87.6395333095394 197.4502479908434 78.009119663274 180.2505753633712 70.4094002682978C172.34317502123 66.932605565333 168.9279165076982 57.5791047715161 172.6200878736785 49.7637010325773L183.6966019716195 26.3799490480352C187.2657009587339 18.8728416181557 196.0961441423701 15.5803478025427 203.7266316320628 18.8728416181557C224.0951103343877 27.6725167070755 241.2947829618599 38.8105669944495 255.324726471638 52.3485286697107C272.4320948149607 68.8709955324727 284.1544312210011 87.5164609306733 290.4926587326006 108.3156929590292C296.8311939251474 129.1149249873851 300 157.4831083160007 300 193.4817791343089V267.0175255067506C300 275.5092119675582 293.1076391025562 282.4015728650019 284.6159526417486 282.4015728650019zM32.6252569135909 18.9343778075886C52.7475908581837 27.7032848017919 69.8546515205593 38.8410274082188 83.977206995434 52.3485286697107C101.2381081313921 68.8709955324727 113.0222884078127 87.4549247412404 119.3605159194122 108.1003162960137C125.6987434310118 128.7457078507871 128.8675495058644 157.2061954635522 128.8675495058644 193.4817791343089V267.0175255067506C128.8675495058644 275.5095196485053 121.975803970315 282.4015728650019 113.483502147613 282.4015728650019H19.9484942094446C11.4565000676898 282.4015728650019 4.5644468511932 275.5095196485053 4.5644468511932 267.0175255067506V173.4825175685821C4.5644468511932 164.9902157458802 11.4565000676898 158.0984702103307 19.9484942094446 158.0984702103307H64.7160720219561C64.1314782223426 133.6067591350474 58.4393806997896 114.0077904815823 47.6705475490136 99.2698731123774C39.1785534072588 87.6395333095394 26.3174898157607 78.009119663274 9.1181248692356 70.4094002682978C1.2107245270944 66.932605565333 -2.2045339864374 57.5791047715161 1.4876373795429 49.7637010325773L12.5333833827674 26.4414852374682C16.1027900508289 18.9343778075886 24.9947694238982 15.6111158972592 32.6252569135909 18.9343778075886z" />
    <glyph glyph-name="012-left-quote"
      unicode="&#xF10C;"
      horiz-adv-x="300" d="M120.5217770105114 229.7391921652778C128.0241366236155 232.8853429707731 131.1702874291108 241.8397721864135 127.7821250231928 249.1001201990949L115.9235566024798 274.0273150426344C112.5353941965618 281.0432313388889 104.3069997821896 284.1918022603884 97.0466517695082 281.0432313388889C76.4756657335775 272.3308137236712 58.8088189027194 260.9562685038036 44.772146078202 247.161607279709C27.5893224481894 230.9492501673914 15.9727656278991 212.3143569348424 9.6804640169085 191.7433708989117C3.388162405918 170.9279531465542 0 142.6150160131009 0 106.5552875501166V32.2577262203434C0 24.2713434063939 6.5343132114133 17.7370301949807 14.5206960253628 17.7370301949807H109.6312549914893C117.6176378054388 17.7370301949807 124.1519510168521 24.2713434063939 124.1519510168521 32.2577262203434V127.3682851864699C124.1519510168521 135.3570881164237 117.6176378054388 141.8889812118327 109.6312549914893 141.8889812118327H64.1330741120191C64.6170973128645 166.334572970531 70.4253757230097 185.9350924887666 81.0738861416091 200.7002202305564C89.7863037568268 212.5539484192609 102.8549301796533 222.2344124361694 120.5217770105114 229.7391921652778zM291.3819669089472 229.7391921652778C298.8843265220513 232.8853429707731 302.0280572115424 241.8397721864135 298.6423149216286 249.1001201990949L286.7837465009157 273.7828833262074C283.3955840949976 280.8012197384661 275.1671896806254 283.9473705439615 267.906841667944 280.8012197384661C247.577867232436 272.0888021232485 230.1506118859965 260.7142569033809 215.8743475770606 247.161607279709C198.6891038310437 230.7048184509644 186.8329555263349 212.0699252184155 180.5382337993401 191.4989391824848C174.2459321883496 171.1723848629811 171.1022014988585 142.8546074975194 171.1022014988585 106.5528674341124V32.2553061043392C171.1022014988585 24.2689232903897 177.6365147102718 17.7346100789765 185.6228975242214 17.7346100789765H280.7334564903478C288.7198393042974 17.7346100789765 295.2541525157106 24.2689232903897 295.2541525157106 32.2553061043392V127.3658650704657C295.2541525157106 135.3546680004195 288.7198393042974 141.8865610958285 280.7334564903478 141.8865610958285H234.9932640104549C235.4772872113004 166.3321528545268 241.2879857374497 185.9326723727624 251.9340760400449 200.6978001145522C260.6464936552626 212.5539484192609 273.7151200780891 222.2344124361694 291.3819669089472 229.7391921652778z" />
    <glyph glyph-name="012-left-quote-1"
      unicode="&#x30;&#x31;&#x32;&#x2D;&#x6C;&#x65;&#x66;&#x74;&#x2D;&#x71;&#x75;&#x6F;&#x74;&#x65;"
      horiz-adv-x="300" d="M120.5217770105114 229.7391921652778C128.0241366236155 232.8853429707731 131.1702874291108 241.8397721864135 127.7821250231928 249.1001201990949L115.9235566024798 274.0273150426345C112.5353941965618 281.0432313388889 104.3069997821896 284.1918022603884 97.0466517695082 281.0432313388889C76.4756657335775 272.3308137236712 58.8088189027194 260.9562685038036 44.772146078202 247.161607279709C27.5893224481894 230.9492501673914 15.9727656278991 212.3143569348424 9.6804640169085 191.7433708989117C3.388162405918 170.9279531465542 0 142.6150160131009 0 106.5552875501166V32.2577262203434C0 24.2713434063939 6.5343132114133 17.7370301949807 14.5206960253628 17.7370301949807H109.6312549914893C117.6176378054388 17.7370301949807 124.1519510168521 24.2713434063939 124.1519510168521 32.2577262203434V127.3682851864699C124.1519510168521 135.3570881164237 117.6176378054388 141.8889812118327 109.6312549914893 141.8889812118327H64.1330741120191C64.6170973128645 166.334572970531 70.4253757230097 185.9350924887666 81.0738861416091 200.7002202305564C89.7863037568268 212.5539484192609 102.8549301796533 222.2344124361694 120.5217770105114 229.7391921652778zM291.3819669089472 229.7391921652778C298.8843265220513 232.8853429707731 302.0280572115424 241.8397721864135 298.6423149216286 249.1001201990949L286.7837465009157 273.7828833262074C283.3955840949976 280.8012197384661 275.1671896806255 283.9473705439615 267.906841667944 280.8012197384661C247.577867232436 272.0888021232485 230.1506118859965 260.7142569033809 215.8743475770606 247.161607279709C198.6891038310437 230.7048184509644 186.8329555263349 212.0699252184155 180.5382337993401 191.4989391824848C174.2459321883496 171.1723848629811 171.1022014988585 142.8546074975194 171.1022014988585 106.5528674341124V32.2553061043392C171.1022014988585 24.2689232903897 177.6365147102718 17.7346100789765 185.6228975242214 17.7346100789765H280.7334564903478C288.7198393042974 17.7346100789765 295.2541525157106 24.2689232903897 295.2541525157106 32.2553061043392V127.3658650704657C295.2541525157106 135.3546680004195 288.7198393042974 141.8865610958285 280.7334564903478 141.8865610958285H234.9932640104549C235.4772872113004 166.3321528545268 241.2879857374497 185.9326723727624 251.9340760400449 200.6978001145522C260.6464936552626 212.5539484192609 273.7151200780891 222.2344124361694 291.3819669089472 229.7391921652778z" />
    <glyph glyph-name="013-down-arrow"
      unicode="&#xF10D;"
      horiz-adv-x="300" d="M296.0063636363637 227.8245454545455C290.6818181818182 233.1490909090909 282.0472727272728 233.15 276.7218181818182 227.8236363636364L150.0036363636364 101.1027272727273L23.2790909090909 227.8245454545455C17.9545454545455 233.1490909090909 9.32 233.15 3.9945454545455 227.8236363636364C-1.3309090909091 222.4981818181818 -1.3309090909091 213.8645454545455 3.9945454545455 208.5390909090909L140.3618181818182 72.1754545454546C142.9190909090909 69.6181818181818 146.3872727272728 68.1818181818182 150.0036363636364 68.1818181818182S157.0890909090909 69.6190909090909 159.6454545454545 72.1763636363637L296.0054545454546 208.54C301.3318181818182 213.8645454545455 301.3318181818182 222.4990909090909 296.0063636363637 227.8245454545455z" />
    <glyph glyph-name="013-down-arrow-1"
      unicode="&#x30;&#x31;&#x33;&#x2D;&#x64;&#x6F;&#x77;&#x6E;&#x2D;&#x61;&#x72;&#x72;&#x6F;&#x77;"
      horiz-adv-x="300" d="M296.0063636363637 227.8245454545455C290.6818181818182 233.1490909090909 282.0472727272728 233.15 276.7218181818182 227.8236363636364L150.0036363636364 101.1027272727273L23.2790909090909 227.8245454545455C17.9545454545455 233.1490909090909 9.32 233.15 3.9945454545455 227.8236363636364C-1.3309090909091 222.4981818181818 -1.3309090909091 213.8645454545455 3.9945454545455 208.5390909090909L140.3618181818182 72.1754545454546C142.9190909090909 69.6181818181818 146.3872727272728 68.1818181818182 150.0036363636364 68.1818181818182S157.0890909090909 69.6190909090909 159.6454545454545 72.1763636363637L296.0054545454546 208.54C301.3318181818182 213.8645454545455 301.3318181818182 222.4990909090909 296.0063636363637 227.8245454545455z" />
    <glyph glyph-name="014-down-arrow-1"
      unicode="&#xF10E;"
      horiz-adv-x="300" d="M296.3344537519702 227.5843683045872C291.447254062901 232.4715679936564 283.5472284775132 232.4715679936564 278.660028788444 227.5843683045872L149.9997070375441 98.9246324785991L21.339971211556 227.5843683045872C16.4527715224868 232.4715679936564 8.552745937099 232.4715679936564 3.6655462480298 227.5843683045872S-1.2216534410394 214.7971430301302 3.6655462480298 209.909943341061L141.1627875182369 72.412702070854C143.6002351511979 69.9752544378929 146.799971094371 68.750085447383 150.0002929624559 68.750085447383C153.2006148305408 68.750085447383 156.4003507737139 69.975254437893 158.8377984066749 72.412702070854L296.335039676882 209.9099433410611C301.2216534410394 214.7971430301302 301.2216534410394 222.697168615518 296.3344537519702 227.5843683045872z" />
    <glyph glyph-name="014-down-arrow-1-1"
      unicode="&#x30;&#x31;&#x34;&#x2D;&#x64;&#x6F;&#x77;&#x6E;&#x2D;&#x61;&#x72;&#x72;&#x6F;&#x77;&#x2D;&#x31;"
      horiz-adv-x="300" d="M296.3344537519702 227.5843683045872C291.447254062901 232.4715679936564 283.5472284775132 232.4715679936564 278.660028788444 227.5843683045872L149.9997070375441 98.9246324785991L21.339971211556 227.5843683045872C16.4527715224868 232.4715679936564 8.552745937099 232.4715679936564 3.6655462480298 227.5843683045872S-1.2216534410394 214.7971430301302 3.6655462480298 209.909943341061L141.1627875182369 72.412702070854C143.6002351511979 69.9752544378929 146.799971094371 68.750085447383 150.0002929624559 68.750085447383C153.2006148305408 68.750085447383 156.4003507737139 69.975254437893 158.8377984066749 72.412702070854L296.335039676882 209.9099433410611C301.2216534410394 214.7971430301302 301.2216534410394 222.697168615518 296.3344537519702 227.5843683045872z" />
    <glyph glyph-name="015-down-arrow-2"
      unicode="&#xF10F;"
      horiz-adv-x="300" d="M298.0923498336921 226.356755038153C295.5488162786147 228.9002885932303 291.4137399726081 228.9002885932303 288.8702064175308 226.356755038153L150.0067256896889 87.4798229309333L11.1297935824692 226.3433036587752C8.5862600273919 228.8868372138525 4.4511837213852 228.8868372138525 1.907650166308 226.3433036587752C-0.6358833887693 223.7997701036979 -0.6358833887693 219.6646937976913 1.907650166308 217.121160242614L145.3892340050871 73.6395764038349C146.6677264723146 72.3745353159852 148.3369203678341 71.7349833692037 150.0067256896889 71.7349833692037S153.3457249070632 72.3739238896498 154.6113774212483 73.6524163568774L298.0929612600274 217.1340001956565C300.6358833887693 219.6781451770691 300.6358833887693 223.8132214830757 298.0923498336921 226.356755038153z" />
    <glyph glyph-name="015-down-arrow-2-1"
      unicode="&#x30;&#x31;&#x35;&#x2D;&#x64;&#x6F;&#x77;&#x6E;&#x2D;&#x61;&#x72;&#x72;&#x6F;&#x77;&#x2D;&#x32;"
      horiz-adv-x="300" d="M298.0923498336921 226.356755038153C295.5488162786147 228.9002885932303 291.4137399726081 228.9002885932303 288.8702064175308 226.356755038153L150.0067256896889 87.4798229309333L11.1297935824692 226.3433036587752C8.5862600273919 228.8868372138525 4.4511837213852 228.8868372138525 1.907650166308 226.3433036587752C-0.6358833887693 223.7997701036979 -0.6358833887693 219.6646937976913 1.907650166308 217.121160242614L145.3892340050871 73.6395764038349C146.6677264723146 72.3745353159852 148.3369203678341 71.7349833692037 150.0067256896889 71.7349833692037S153.3457249070632 72.3739238896498 154.6113774212483 73.6524163568774L298.0929612600274 217.1340001956565C300.6358833887693 219.6781451770691 300.6358833887693 223.8132214830757 298.0923498336921 226.356755038153z" />
    <glyph glyph-name="016-plus"
      unicode="&#xF110;"
      horiz-adv-x="300" d="M284.9990820703197 165.0000010546875H165.0009144140553V285.0009158203054C165.0009144140553 293.2791136462569 158.2800280603123 300 149.9990831250071 300C141.7208852990556 300 134.9999989453125 293.2791136462569 134.9999989453125 285.0009158203054V165.0000010546875H14.9990841796946C6.7208863537431 165.0000010546875 0 158.2791147009444 0 150.0009168749929C0 141.7199719396877 6.7208863537431 134.9990855859447 14.9990841796946 134.9990855859447H134.9999989453125V15.0009179296803C134.9999989453125 6.7199729943752 141.7208852990556 -0.0009133593679 149.9990831250071 -0.0009133593679C158.2800280603123 -0.0009133593679 165.0009144140553 6.7199729943752 165.0009144140553 15.0009179296803V134.9990855859447H284.9990820703197C293.2800270056248 134.9990855859447 300.0009133593678 141.7199719396877 300.0009133593678 150.0009168749928C300.0009133593678 158.2791147009444 293.2800270056248 165.0000010546875 284.9990820703197 165.0000010546875zM284.9990820703197 165.0000010546875" />
    <glyph glyph-name="016-plus-1"
      unicode="&#x30;&#x31;&#x36;&#x2D;&#x70;&#x6C;&#x75;&#x73;"
      horiz-adv-x="300" d="M284.9990820703197 165.0000010546875H165.0009144140553V285.0009158203054C165.0009144140553 293.2791136462569 158.2800280603123 300 149.9990831250071 300C141.7208852990556 300 134.9999989453125 293.2791136462569 134.9999989453125 285.0009158203054V165.0000010546875H14.9990841796946C6.7208863537431 165.0000010546875 0 158.2791147009444 0 150.0009168749929C0 141.7199719396877 6.7208863537431 134.9990855859447 14.9990841796946 134.9990855859447H134.9999989453125V15.0009179296803C134.9999989453125 6.7199729943752 141.7208852990556 -0.0009133593679 149.9990831250071 -0.0009133593679C158.2800280603123 -0.0009133593679 165.0009144140553 6.7199729943752 165.0009144140553 15.0009179296803V134.9990855859447H284.9990820703197C293.2800270056248 134.9990855859447 300.0009133593678 141.7199719396877 300.0009133593678 150.0009168749928C300.0009133593678 158.2791147009444 293.2800270056248 165.0000010546875 284.9990820703197 165.0000010546875zM284.9990820703197 165.0000010546875" />
    <glyph glyph-name="017-add"
      unicode="&#xF111;"
      horiz-adv-x="300" d="M283.5756097560976 173.4353658536586L283.5926829268293 173.4353658536586H173.4365853658536V283.3841463414634C173.4365853658536 292.4329268292683 166.109756097561 299.9987804878049 157.0609756097561 299.9987804878049H142.9658536585366C133.919512195122 299.9987804878049 126.5609756097561 292.4329268292683 126.5609756097561 283.3841463414634V173.4353658536586H16.4073170731707C7.3634146341463 173.4353658536586 0 166.1182926829268 0 157.0670731707317V142.8914634146341C0 133.8475609756098 7.3609756097561 126.5621951219512 16.4073170731707 126.5621951219512H126.5634146341464V16.2158536585366C126.5634146341464 7.1719512195122 133.919512195122 0.0012195121952 142.9682926829268 0.0012195121952H157.0634146341464C166.1121951219512 0.0012195121952 173.4390243902439 7.1743902439025 173.4390243902439 16.2158536585366V126.5621951219512H283.5756097560976C292.6243902439024 126.5621951219512 300 133.85 300 142.8914634146341V157.0670731707317C300 166.1182926829268 292.6243902439025 173.4353658536586 283.5756097560976 173.4353658536586z" />
    <glyph glyph-name="017-add-1"
      unicode="&#x30;&#x31;&#x37;&#x2D;&#x61;&#x64;&#x64;"
      horiz-adv-x="300" d="M283.5756097560976 173.4353658536586L283.5926829268293 173.4353658536586H173.4365853658536V283.3841463414634C173.4365853658536 292.4329268292683 166.109756097561 299.9987804878049 157.0609756097561 299.9987804878049H142.9658536585366C133.919512195122 299.9987804878049 126.5609756097561 292.4329268292683 126.5609756097561 283.3841463414634V173.4353658536586H16.4073170731707C7.3634146341463 173.4353658536586 0 166.1182926829268 0 157.0670731707317V142.8914634146341C0 133.8475609756098 7.3609756097561 126.5621951219512 16.4073170731707 126.5621951219512H126.5634146341464V16.2158536585366C126.5634146341464 7.1719512195122 133.919512195122 0.0012195121952 142.9682926829268 0.0012195121952H157.0634146341464C166.1121951219512 0.0012195121952 173.4390243902439 7.1743902439025 173.4390243902439 16.2158536585366V126.5621951219512H283.5756097560976C292.6243902439024 126.5621951219512 300 133.85 300 142.8914634146341V157.0670731707317C300 166.1182926829268 292.6243902439025 173.4353658536586 283.5756097560976 173.4353658536586z" />
    <glyph glyph-name="018-add-1"
      unicode="&#xF112;"
      horiz-adv-x="300" d="M287.499755859375 162.500244140625H162.500244140625V287.499755859375C162.500244140625 294.403564453125 156.90380859375 300 150 300S137.499755859375 294.403564453125 137.499755859375 287.499755859375V162.49951171875H12.500244140625C5.596435546875 162.500244140625 0 156.90380859375 0 150S5.596435546875 137.499755859375 12.500244140625 137.499755859375H137.50048828125V12.49951171875C137.50048828125 5.595703125 143.096923828125 -0.000732421875 150.000732421875 -0.000732421875S162.5009765625 5.595703125 162.5009765625 12.49951171875V137.499755859375H287.501220703125C294.405029296875 137.499755859375 300.00146484375 143.09619140625 300.00146484375 150S294.403564453125 162.500244140625 287.499755859375 162.500244140625z" />
    <glyph glyph-name="018-add-1-1"
      unicode="&#x30;&#x31;&#x38;&#x2D;&#x61;&#x64;&#x64;&#x2D;&#x31;"
      horiz-adv-x="300" d="M287.499755859375 162.500244140625H162.500244140625V287.499755859375C162.500244140625 294.403564453125 156.90380859375 300 150 300S137.499755859375 294.403564453125 137.499755859375 287.499755859375V162.49951171875H12.500244140625C5.596435546875 162.500244140625 0 156.90380859375 0 150S5.596435546875 137.499755859375 12.500244140625 137.499755859375H137.50048828125V12.49951171875C137.50048828125 5.595703125 143.096923828125 -0.000732421875 150.000732421875 -0.000732421875S162.5009765625 5.595703125 162.5009765625 12.49951171875V137.499755859375H287.501220703125C294.405029296875 137.499755859375 300.00146484375 143.09619140625 300.00146484375 150S294.403564453125 162.500244140625 287.499755859375 162.500244140625z" />
    <glyph glyph-name="019-remove"
      unicode="&#xF113;"
      horiz-adv-x="300" d="M287.499755859375 162.500244140625H12.500244140625C5.596435546875 162.500244140625 0 156.90380859375 0 150S5.596435546875 137.499755859375 12.500244140625 137.499755859375H287.50048828125C294.404296875 137.499755859375 300.000732421875 143.09619140625 300.000732421875 150S294.403564453125 162.500244140625 287.499755859375 162.500244140625z" />
    <glyph glyph-name="019-remove-1"
      unicode="&#x30;&#x31;&#x39;&#x2D;&#x72;&#x65;&#x6D;&#x6F;&#x76;&#x65;"
      horiz-adv-x="300" d="M287.499755859375 162.500244140625H12.500244140625C5.596435546875 162.500244140625 0 156.90380859375 0 150S5.596435546875 137.499755859375 12.500244140625 137.499755859375H287.50048828125C294.404296875 137.499755859375 300.000732421875 143.09619140625 300.000732421875 150S294.403564453125 162.500244140625 287.499755859375 162.500244140625z" />
    <glyph glyph-name="020-minus"
      unicode="&#xF114;"
      horiz-adv-x="300" d="M288.28125 161.71875H11.71875C5.246484375 161.71875 0 156.472265625 0 150C0 143.527734375 5.246484375 138.28125 11.71875 138.28125H288.28125C294.753515625 138.28125 300 143.527734375 300 150S294.753515625 161.71875 288.28125 161.71875z" />
    <glyph glyph-name="020-minus-1"
      unicode="&#x30;&#x32;&#x30;&#x2D;&#x6D;&#x69;&#x6E;&#x75;&#x73;"
      horiz-adv-x="300" d="M288.28125 161.71875H11.71875C5.246484375 161.71875 0 156.472265625 0 150C0 143.527734375 5.246484375 138.28125 11.71875 138.28125H288.28125C294.753515625 138.28125 300 143.527734375 300 150S294.753515625 161.71875 288.28125 161.71875z" />
    <glyph glyph-name="021-minus-sign"
      unicode="&#xF115;"
      horiz-adv-x="300.0024629733014" d="M17.9994088864077 131.998128140291H282.0005911135924C291.9436143312207 131.998128140291 300.0024629733014 140.0569767823717 300.0024629733014 150.0024629733014C300.0024629733014 159.9454861909297 291.946077304522 168.0043348330104 282.0005911135924 168.0043348330104H17.9994088864077C8.0588486420807 168.001871859709 0 159.9430232176283 0 150C0 140.0569767823717 8.0588486420807 131.998128140291 17.9994088864077 131.998128140291z" />
    <glyph glyph-name="021-minus-sign-1"
      unicode="&#x30;&#x32;&#x31;&#x2D;&#x6D;&#x69;&#x6E;&#x75;&#x73;&#x2D;&#x73;&#x69;&#x67;&#x6E;"
      horiz-adv-x="300.0024629733014" d="M17.9994088864077 131.998128140291H282.0005911135924C291.9436143312207 131.998128140291 300.0024629733014 140.0569767823717 300.0024629733014 150.0024629733014C300.0024629733014 159.9454861909297 291.946077304522 168.0043348330104 282.0005911135924 168.0043348330104H17.9994088864077C8.0588486420807 168.001871859709 0 159.9430232176283 0 150C0 140.0569767823717 8.0588486420807 131.998128140291 17.9994088864077 131.998128140291z" />
    <glyph glyph-name="022-menu"
      unicode="&#xF116;"
      horiz-adv-x="300" d="M9.3747564745305 206.2500974101878H290.624464243967C295.799672701769 206.2500974101878 299.9992207184975 210.4504247084188 299.9992207184975 215.6248538847183C299.9992207184975 220.8000623425202 295.7988934202665 224.9996103592488 290.624464243967 224.9996103592488H9.3747564745305C4.1995480167286 224.9996103592488 0 220.7992830610178 0 215.6248538847183C0 210.4504247084188 4.200327298231 206.2500974101878 9.3747564745305 206.2500974101878zM290.6244642439671 159.3747564745305H9.3747564745305C4.1995480167286 159.3747564745305 0 155.1744291762995 0 150S4.200327298231 140.6252435254695 9.3747564745305 140.6252435254695H290.624464243967C295.799672701769 140.6252435254695 299.9992207184975 144.8255708237005 299.9992207184975 150S295.799672701769 159.3747564745305 290.6244642439671 159.3747564745305zM290.6244642439671 93.7499025898122H103.1246590643427C97.9494506065408 93.7499025898122 93.7499025898122 89.5495752915812 93.7499025898122 84.3751461152818C93.7499025898122 79.1999376574798 97.9502298880432 75.0003896407513 103.1246590643427 75.0003896407513H290.624464243967C295.799672701769 75.0003896407513 299.9992207184975 79.2007169389823 299.9992207184975 84.3751461152818C300 89.5503545730836 295.799672701769 93.7499025898122 290.6244642439671 93.7499025898122z" />
    <glyph glyph-name="022-menu-1"
      unicode="&#x30;&#x32;&#x32;&#x2D;&#x6D;&#x65;&#x6E;&#x75;"
      horiz-adv-x="300" d="M9.3747564745305 206.2500974101878H290.624464243967C295.799672701769 206.2500974101878 299.9992207184975 210.4504247084188 299.9992207184975 215.6248538847183C299.9992207184975 220.8000623425202 295.7988934202665 224.9996103592488 290.624464243967 224.9996103592488H9.3747564745305C4.1995480167286 224.9996103592488 0 220.7992830610178 0 215.6248538847183C0 210.4504247084188 4.200327298231 206.2500974101878 9.3747564745305 206.2500974101878zM290.6244642439671 159.3747564745305H9.3747564745305C4.1995480167286 159.3747564745305 0 155.1744291762995 0 150S4.200327298231 140.6252435254695 9.3747564745305 140.6252435254695H290.624464243967C295.799672701769 140.6252435254695 299.9992207184975 144.8255708237005 299.9992207184975 150S295.799672701769 159.3747564745305 290.6244642439671 159.3747564745305zM290.6244642439671 93.7499025898122H103.1246590643427C97.9494506065408 93.7499025898122 93.7499025898122 89.5495752915812 93.7499025898122 84.3751461152818C93.7499025898122 79.1999376574798 97.9502298880432 75.0003896407513 103.1246590643427 75.0003896407513H290.624464243967C295.799672701769 75.0003896407513 299.9992207184975 79.2007169389823 299.9992207184975 84.3751461152818C300 89.5503545730836 295.799672701769 93.7499025898122 290.6244642439671 93.7499025898122z" />
    <glyph glyph-name="023-eye"
      unicode="&#xF117;"
      horiz-adv-x="300" d="M150 239.4139306535747C92.6818042344278 239.4139306535747 40.7026695305309 208.0546179809758 2.3473458115987 157.1187480822338C-0.7824486038662 152.945688861614 -0.7824486038662 147.1156796563363 2.3473458115987 142.9426204357165C40.7026695305309 91.9453820190243 92.6818042344278 60.5860693464253 150 60.5860693464253S259.2973304694692 91.9453820190243 297.6526541884014 142.8812519177662C300.7824486038662 147.054311138386 300.7824486038662 152.8843203436637 297.6526541884014 157.0573795642835C259.2973304694692 208.0546179809758 207.3181957655723 239.4139306535747 150 239.4139306535747zM154.1116907026695 87.0359005830009C116.0632095734888 84.6425283829396 84.6425283829396 116.0018410555385 87.0359005830009 154.1116907026696C88.9996931574102 185.5323718932188 114.4676281067812 211.0003068425898 145.8883092973305 212.9640994169991C183.9367904265112 215.3574716170605 215.3574716170605 183.9981589444615 212.9640994169991 145.8883092973305C210.9389383246395 114.5289966247315 185.4710033752685 89.0610616753605 154.1116907026695 87.0359005830009zM152.2092666462105 116.1245780914391C131.7121816508131 114.835839214483 114.7744706965327 131.7121816508131 116.1245780914391 152.2092666462105C117.1678428965941 169.146977600491 130.9143909174594 182.832157103406 147.8521018717398 183.9367904265112C168.3491868671372 185.2255293034673 185.2868978214176 168.3491868671372 183.9367904265112 147.8521018717398C182.832157103406 130.8530223995091 169.0856090825407 117.1678428965941 152.2092666462105 116.1245780914391z" />
    <glyph glyph-name="023-eye-1"
      unicode="&#x30;&#x32;&#x33;&#x2D;&#x65;&#x79;&#x65;"
      horiz-adv-x="300" d="M150 239.4139306535747C92.6818042344278 239.4139306535747 40.7026695305309 208.0546179809758 2.3473458115987 157.1187480822338C-0.7824486038662 152.945688861614 -0.7824486038662 147.1156796563363 2.3473458115987 142.9426204357165C40.7026695305309 91.9453820190243 92.6818042344278 60.5860693464253 150 60.5860693464253S259.2973304694692 91.9453820190243 297.6526541884014 142.8812519177662C300.7824486038662 147.054311138386 300.7824486038662 152.8843203436637 297.6526541884014 157.0573795642835C259.2973304694692 208.0546179809758 207.3181957655723 239.4139306535747 150 239.4139306535747zM154.1116907026695 87.0359005830009C116.0632095734888 84.6425283829396 84.6425283829396 116.0018410555385 87.0359005830009 154.1116907026696C88.9996931574102 185.5323718932188 114.4676281067812 211.0003068425898 145.8883092973305 212.9640994169991C183.9367904265112 215.3574716170605 215.3574716170605 183.9981589444615 212.9640994169991 145.8883092973305C210.9389383246395 114.5289966247315 185.4710033752685 89.0610616753605 154.1116907026695 87.0359005830009zM152.2092666462105 116.1245780914391C131.7121816508131 114.835839214483 114.7744706965327 131.7121816508131 116.1245780914391 152.2092666462105C117.1678428965941 169.146977600491 130.9143909174594 182.832157103406 147.8521018717398 183.9367904265112C168.3491868671372 185.2255293034673 185.2868978214176 168.3491868671372 183.9367904265112 147.8521018717398C182.832157103406 130.8530223995091 169.0856090825407 117.1678428965941 152.2092666462105 116.1245780914391z" />
    <glyph glyph-name="024-visibility"
      unicode="&#xF118;"
      horiz-adv-x="300" d="M298.8890451413303 153.5502507851685C296.526508226691 156.9879998124971 239.7506211034548 237.5017578399663 149.9994140533446 237.5017578399663C72.9855153986781 237.5017578399663 4.3594431162987 157.4503117236207 1.4718979984062 154.0377584024751C-0.4904373505836 151.7127220737824 -0.4904373505836 148.3001687526368 1.4718979984062 145.9628275441804C4.3594431162987 142.5502742230348 72.9855153986781 62.4988281066892 149.9994140533446 62.4988281066892S295.638799043735 142.5502742230348 298.5263441616275 145.9628275441804C300.3392631134862 148.1126658229035 300.5015703370365 151.2252144564759 298.8890451413303 153.5502507851685zM149.9994140533446 74.9988281066892C88.261144705386 74.9988281066892 29.5598368724511 133.8747480429382 14.6474944921014 150C29.5352271129236 166.1375568368256 88.173838653729 225.0011718933109 149.9994140533446 225.0011718933109C222.2378474663666 225.0011718933109 273.2263394740542 166.2125580087189 285.6765340083439 150.3375052735199C271.3009187643557 134.7249566399475 212.2626916045563 74.9988281066892 149.9994140533446 74.9988281066892zM149.9994140533446 200.0011718933109C122.4241785027891 200.0011718933109 99.9988281066892 177.5758214972109 99.9988281066892 150.0005859466554S122.4241785027891 100 149.9994140533446 100S200 122.4253503961 200 150.0005859466554S177.5746496039001 200.0011718933109 149.9994140533446 200.0011718933109zM149.9994140533446 112.4994140533446C129.3242863169737 112.4994140533446 112.4988281066892 129.3248722636292 112.4988281066892 150S129.3242863169737 187.5005859466554 149.9994140533446 187.5005859466554S187.5 170.6751277363709 187.5 150S170.6745417897154 112.4994140533446 149.9994140533446 112.4994140533446z" />
    <glyph glyph-name="024-visibility-1"
      unicode="&#x30;&#x32;&#x34;&#x2D;&#x76;&#x69;&#x73;&#x69;&#x62;&#x69;&#x6C;&#x69;&#x74;&#x79;"
      horiz-adv-x="300" d="M298.8890451413303 153.5502507851685C296.526508226691 156.9879998124971 239.7506211034548 237.5017578399663 149.9994140533446 237.5017578399663C72.9855153986781 237.5017578399663 4.3594431162987 157.4503117236207 1.4718979984062 154.0377584024751C-0.4904373505836 151.7127220737824 -0.4904373505836 148.3001687526368 1.4718979984062 145.9628275441804C4.3594431162987 142.5502742230348 72.9855153986781 62.4988281066892 149.9994140533446 62.4988281066892S295.638799043735 142.5502742230348 298.5263441616275 145.9628275441804C300.3392631134862 148.1126658229035 300.5015703370366 151.2252144564759 298.8890451413303 153.5502507851685zM149.9994140533446 74.9988281066892C88.261144705386 74.9988281066892 29.5598368724511 133.8747480429382 14.6474944921014 150C29.5352271129236 166.1375568368256 88.173838653729 225.0011718933109 149.9994140533446 225.0011718933109C222.2378474663666 225.0011718933109 273.2263394740542 166.2125580087189 285.6765340083439 150.3375052735199C271.3009187643557 134.7249566399475 212.2626916045563 74.9988281066892 149.9994140533446 74.9988281066892zM149.9994140533446 200.0011718933109C122.4241785027891 200.0011718933109 99.9988281066892 177.5758214972109 99.9988281066892 150.0005859466554S122.4241785027891 100 149.9994140533446 100S200 122.4253503961 200 150.0005859466554S177.5746496039001 200.0011718933109 149.9994140533446 200.0011718933109zM149.9994140533446 112.4994140533446C129.3242863169737 112.4994140533446 112.4988281066892 129.3248722636292 112.4988281066892 150S129.3242863169737 187.5005859466554 149.9994140533446 187.5005859466554S187.5 170.6751277363709 187.5 150S170.6745417897154 112.4994140533446 149.9994140533446 112.4994140533446z" />
    <glyph glyph-name="025-clock"
      unicode="&#xF119;"
      horiz-adv-x="300" d="M150 300C67.29145894147 300 0 232.70854105853 0 150S67.29145894147 1e-13 150 1e-13S300 67.29145894147 300 150S232.70854105853 300 150 300zM150 18.7500845939715C77.6274887546414 18.7500845939715 18.7500845939715 77.6274887546414 18.7500845939715 150S77.6274887546414 281.2499154060285 150 281.2499154060285S281.2499154060285 222.3725112453586 281.2499154060285 150S222.3725112453586 18.7500845939715 150 18.7500845939715zM159.3750422969858 243.7497462180856H140.6249577030143V146.1181518360276L199.6214701755494 87.1216393634924L212.8783606365076 100.3785298244506L159.3750422969857 153.8818481639725z" />
    <glyph glyph-name="025-clock-1"
      unicode="&#x30;&#x32;&#x35;&#x2D;&#x63;&#x6C;&#x6F;&#x63;&#x6B;"
      horiz-adv-x="300" d="M150 300C67.29145894147 300 0 232.70854105853 0 150S67.29145894147 1e-13 150 1e-13S300 67.29145894147 300 150S232.70854105853 300 150 300zM150 18.7500845939715C77.6274887546414 18.7500845939715 18.7500845939715 77.6274887546414 18.7500845939715 150S77.6274887546414 281.2499154060285 150 281.2499154060285S281.2499154060285 222.3725112453586 281.2499154060285 150S222.3725112453586 18.7500845939715 150 18.7500845939715zM159.3750422969858 243.7497462180856H140.6249577030143V146.1181518360276L199.6214701755494 87.1216393634924L212.8783606365076 100.3785298244506L159.3750422969857 153.8818481639725z" />
    <glyph glyph-name="026-wall-clock"
      unicode="&#xF11A;"
      horiz-adv-x="300" d="M149.999694293686 300C67.2914624378652 300 0 232.7085375621348 0 150.000305706314S67.2914624378652 0.0006114126281 149.999694293686 0.0006114126281S299.999388587372 67.2920738504933 299.999388587372 150.000305706314S232.7085375621349 300 149.999694293686 300zM149.999694293686 13.0438770082357C74.4780064687456 13.0438770082357 13.0432655956076 74.4786178813737 13.0432655956076 150.000305706314S74.4780064687456 286.9567344043924 149.999694293686 286.9567344043924S286.9561229917643 225.5219935312544 286.9561229917643 150.000305706314S225.5213821186263 13.0438770082357 149.999694293686 13.0438770082357zM213.3126947603976 95.9086304968543L156.5216327978038 152.7003038720762V254.3476532964312C156.5216327978038 257.9476508507807 153.5996918480354 260.8695918005491 149.999694293686 260.8695918005491S143.4777557895681 257.9476508507807 143.4777557895681 254.3476532964312V149.9996942936859C143.4777557895681 148.2651166677197 144.1692634719678 146.6081884455242 145.3823061261508 145.3823061261507L204.0779184253272 86.6866938269743C205.3563822307186 85.4216810994014 207.0255387054765 84.7821434903917 208.6953065928624 84.7821434903917C210.3650744802484 84.7821434903917 212.0342309550062 85.4210696867733 213.3126947603976 86.6866938269743C215.8561712933619 89.2307817725667 215.8561712933619 93.36515396389 213.3126947603976 95.9086304968543z" />
    <glyph glyph-name="026-wall-clock-1"
      unicode="&#x30;&#x32;&#x36;&#x2D;&#x77;&#x61;&#x6C;&#x6C;&#x2D;&#x63;&#x6C;&#x6F;&#x63;&#x6B;"
      horiz-adv-x="300" d="M149.999694293686 300C67.2914624378652 300 0 232.7085375621348 0 150.000305706314S67.2914624378652 0.0006114126281 149.999694293686 0.0006114126281S299.999388587372 67.2920738504933 299.999388587372 150.000305706314S232.7085375621349 300 149.999694293686 300zM149.999694293686 13.0438770082357C74.4780064687456 13.0438770082357 13.0432655956076 74.4786178813737 13.0432655956076 150.000305706314S74.4780064687456 286.9567344043924 149.999694293686 286.9567344043924S286.9561229917643 225.5219935312544 286.9561229917643 150.000305706314S225.5213821186263 13.0438770082357 149.999694293686 13.0438770082357zM213.3126947603976 95.9086304968543L156.5216327978038 152.7003038720762V254.3476532964312C156.5216327978038 257.9476508507807 153.5996918480354 260.8695918005491 149.999694293686 260.8695918005491S143.4777557895681 257.9476508507807 143.4777557895681 254.3476532964312V149.9996942936859C143.4777557895681 148.2651166677197 144.1692634719678 146.6081884455242 145.3823061261508 145.3823061261507L204.0779184253272 86.6866938269743C205.3563822307186 85.4216810994014 207.0255387054765 84.7821434903917 208.6953065928624 84.7821434903917C210.3650744802484 84.7821434903917 212.0342309550062 85.4210696867733 213.3126947603976 86.6866938269743C215.8561712933619 89.2307817725667 215.8561712933619 93.36515396389 213.3126947603976 95.9086304968543z" />
    <glyph glyph-name="027-wall-clock-1"
      unicode="&#xF11B;"
      horiz-adv-x="300" d="M150 300C67.2919921875 300 0 232.7115234375 0 150S67.2919921875 0 150 0C232.7115234375 0 300 67.2884765625 300 150S232.7080078125 300 150 300zM150 21.89765625C79.365234375 21.89765625 21.89765625 79.365234375 21.89765625 150S79.365234375 278.10234375 150 278.10234375S278.10234375 220.6353515625 278.10234375 150.003515625C278.10234375 79.365234375 220.634765625 21.89765625 150 21.89765625zM201.094921875 150H153.6498046875V215.6935546875C153.6498046875 221.741015625 148.7484375 226.6423828125 142.7009765625 226.6423828125S131.7521484375 221.741015625 131.7521484375 215.6935546875V139.051171875C131.7521484375 133.0037109375 136.653515625 128.10234375 142.7009765625 128.10234375H201.094921875C207.1423828125 128.10234375 212.04375 133.0037109375 212.04375 139.051171875S207.1423828125 150 201.094921875 150z" />
    <glyph glyph-name="027-wall-clock-1-1"
      unicode="&#x30;&#x32;&#x37;&#x2D;&#x77;&#x61;&#x6C;&#x6C;&#x2D;&#x63;&#x6C;&#x6F;&#x63;&#x6B;&#x2D;&#x31;"
      horiz-adv-x="300" d="M150 300C67.2919921875 300 0 232.7115234375 0 150S67.2919921875 0 150 0C232.7115234375 0 300 67.2884765625 300 150S232.7080078125 300 150 300zM150 21.89765625C79.365234375 21.89765625 21.89765625 79.365234375 21.89765625 150S79.365234375 278.10234375 150 278.10234375S278.10234375 220.6353515625 278.10234375 150.003515625C278.10234375 79.365234375 220.634765625 21.89765625 150 21.89765625zM201.094921875 150H153.6498046875V215.6935546875C153.6498046875 221.741015625 148.7484375 226.6423828125 142.7009765625 226.6423828125S131.7521484375 221.741015625 131.7521484375 215.6935546875V139.051171875C131.7521484375 133.0037109375 136.653515625 128.10234375 142.7009765625 128.10234375H201.094921875C207.1423828125 128.10234375 212.04375 133.0037109375 212.04375 139.051171875S207.1423828125 150 201.094921875 150z" />
    <glyph glyph-name="028-user"
      unicode="&#xF11C;"
      horiz-adv-x="300" d="M256.06640625 106.06640625C239.7287109375 122.403515625 220.2826171875 134.4978515625 199.0658203125 141.819140625C221.7896484375 157.4701171875 236.71875 183.66328125 236.71875 213.28125C236.71875 261.0978515625 197.8166015625 300 150 300S63.28125 261.0978515625 63.28125 213.28125C63.28125 183.66328125 78.2103515625 157.4701171875 100.934765625 141.819140625C79.71796875 134.4978515625 60.271875 122.403515625 43.9341796875 106.06640625C15.6029296875 77.7345703125 0 40.06640625 0 0H23.4375C23.4375 69.7869140625 80.2130859375 126.5625 150 126.5625S276.5625 69.7869140625 276.5625 0H300C300 40.06640625 284.3970703125 77.7345703125 256.06640625 106.06640625zM150 150C115.1068359375 150 86.71875 178.3875 86.71875 213.28125S115.1068359375 276.5625 150 276.5625C184.8931640625 276.5625 213.28125 248.175 213.28125 213.28125S184.8931640625 150 150 150z" />
    <glyph glyph-name="028-user-1"
      unicode="&#x30;&#x32;&#x38;&#x2D;&#x75;&#x73;&#x65;&#x72;"
      horiz-adv-x="300" d="M256.06640625 106.06640625C239.7287109375 122.403515625 220.2826171875 134.4978515625 199.0658203125 141.819140625C221.7896484375 157.4701171875 236.71875 183.66328125 236.71875 213.28125C236.71875 261.0978515625 197.8166015625 300 150 300S63.28125 261.0978515625 63.28125 213.28125C63.28125 183.66328125 78.2103515625 157.4701171875 100.934765625 141.819140625C79.71796875 134.4978515625 60.271875 122.403515625 43.9341796875 106.06640625C15.6029296875 77.7345703125 0 40.06640625 0 0H23.4375C23.4375 69.7869140625 80.2130859375 126.5625 150 126.5625S276.5625 69.7869140625 276.5625 0H300C300 40.06640625 284.3970703125 77.7345703125 256.06640625 106.06640625zM150 150C115.1068359375 150 86.71875 178.3875 86.71875 213.28125S115.1068359375 276.5625 150 276.5625C184.8931640625 276.5625 213.28125 248.175 213.28125 213.28125S184.8931640625 150 150 150z" />
    <glyph glyph-name="029-user-1"
      unicode="&#xF11D;"
      horiz-adv-x="299.9994140636444" d="M147.861954566495 155.4888689670528C167.715126532956 155.4888689670528 184.9041185466435 162.6093685363896 198.9528584905108 176.6581084802569C212.9970205136318 190.7045591707829 220.1198093363099 207.8912625170654 220.1198093363099 227.7467231509314C220.1198093363099 247.5953171966461 212.9993091810368 264.78430979627 198.9505698231058 278.8353378216059C184.9018298792385 292.8794998447269 167.712837865551 300 147.861954566495 300C128.0064945185654 300 110.8197905863465 292.8794998447269 96.7733398958205 278.8330491542009S75.6041003826164 247.5976058640511 75.6041003826164 227.7467231509314C75.6041003826164 207.8912625170654 82.7268892052945 190.7022705033779 96.7733398958205 176.6558198128519C110.8243685070927 162.6116577897309 128.0133605207802 155.4888689670528 147.861954566495 155.4888689670528zM109.2061769410607 266.4025007763657C119.9842019839805 277.1805258192855 132.6276093210756 282.4196206648034 147.861954566495 282.4196206648034C163.0940111445095 282.4196206648034 175.7397083208822 277.1805258192855 186.5200214452706 266.4025007763657C197.2980459022541 255.6221876519773 202.5394300011133 242.9764910615409 202.5394300011133 227.7467231509314C202.5394300011133 212.5123779055119 197.2980459022541 199.8689699824805 186.5200214452706 189.0886568580921C175.7397083208822 178.3083431477673 163.0940111445095 173.0692483022494 147.861954566495 173.0692483022494C132.6321872418218 173.0692483022494 119.9887793187904 178.3106318151723 109.2061769410607 189.0886568580921C98.4258638166722 199.8666813150756 93.1844797178131 212.5123779055119 93.1844797178131 227.7467231509314C93.1844797178131 242.9764910615409 98.4258638166722 255.6221876519773 109.2061769410607 266.4025007763657zM109.2061769410607 266.4025007763657M274.2937451294041 69.3150257519029C273.8886252175289 75.1606567174674 273.069229552286 81.5372919193517 271.8630250722166 88.270982673862C270.6453760832498 95.0550264550265 269.0775381298083 101.4682832650718 267.2007113267357 107.3299354884073C265.2597971488337 113.388425999168 262.6253722160699 119.3713852121383 259.3638125706786 125.1048644436242C255.983234017121 131.0557805551161 252.0098531057557 136.2376551998922 247.5512436499147 140.5017150357128C242.8889299044338 144.9626137448951 237.1806277722114 148.5491852554976 230.5796891021697 151.1652990912127C224.0016376921139 153.7676809224982 216.7117656020203 155.0860377225826 208.9137765355927 155.0860377225826C205.8513432590952 155.0860377225826 202.8896183796516 153.8294784580499 197.1698723244681 150.1055787000416C193.6496768560999 147.809898222855 189.5321005232412 145.154874111574 184.9361622340581 142.2183257454576C181.0062689330685 139.7143630578847 175.6824875342041 137.3683289681075 169.1067253774895 135.2443096790827C162.6911799000393 133.1683559211799 156.1772158648128 132.1155009462872 149.7456485436552 132.1155009462872C143.3186591432439 132.1155009462872 136.8046951080174 133.1683559211799 130.3845722957573 135.2443096790827C123.8156761412575 137.3660403007026 118.4896060749881 139.7120743904797 114.5665793621497 142.2160370780526C110.0141280974061 145.1251196775007 105.8942630971424 147.7801437887817 102.3214247628423 150.1078673674466C96.606256628405 153.8317671254549 93.6445311630251 155.0883263899876 90.5820984724639 155.0883263899876C82.7818207386314 155.0883263899876 75.4942373159427 153.7676809224982 68.9184751592282 151.1630104238078C62.3221132380601 148.5514739229025 56.6115230243691 144.9649024123 51.9446313581419 140.4994263683079C47.486021902301 136.233077279146 43.5126409909356 131.0534913017749 40.1343516907194 125.1048644436242C36.8773693801379 119.3713852121383 34.2406557799692 113.3907146665729 32.2997416020672 107.3276468210023C30.4252028804631 101.4659945976668 28.857365512958 95.0550264550265 27.6397165239912 88.270982673862C26.4312227905805 81.5464471749079 25.6141163786789 75.1675227196822 25.2089964668038 69.3081591637517C24.8107425571434 63.5792578530121 24.6093269349083 57.616897818559 24.6093269349083 51.5927396626179C24.6093269349083 35.932675326806 29.5874972900444 23.254935048955 39.404219913633 13.9051304587296C49.0996355475868 4.6789215255439 61.9261485817411 0.0005859363556 77.5289927168111 0.0005859363556H221.9806148816116C237.5788816818717 0.0005859363556 250.405394716026 4.6789215255439 260.1030990173848 13.9051304587296C269.9221108943147 23.2480684608038 274.9002806635144 35.9303860734647 274.9002806635144 51.5950289159591C274.8979919961094 57.6397862504175 274.6942877064694 63.6021462848705 274.2937451294041 69.3150257519028zM247.9815406610534 26.6423796047274C241.5751504391593 20.5449794043371 233.0699186134402 17.5809652715523 221.9783262142066 17.5809652715523H77.5289927168111C66.4351116501726 17.5809652715523 57.9298798244535 20.5449794043371 51.5257782699643 26.6400909373224C45.2429842910463 32.6207614828878 42.1897062701049 40.784960771561 42.1897062701049 51.5927396626179C42.1897062701049 57.2140665740888 42.3751000486327 62.7644406944518 42.7458881916246 68.0927994281262C43.107520493124 73.3204497647466 43.8468075257666 79.0630842517886 44.9431495250986 85.1650617869887C46.0257583481282 91.1915086103348 47.4036246022957 96.8471678766253 49.042415346845 101.9672449858497C50.6148300491601 106.8767506313465 52.7594491026385 111.7381913316576 55.4190505487294 116.4211042556558C57.9573450051855 120.8842916322429 60.877872113531 124.713477122115 64.1005220692928 127.7987982445347C67.1148898146683 130.6849924121242 70.9143208704671 133.0470483456087 75.3912408374202 134.8185905886903C79.5317050162011 136.4573813332396 84.184863506126 137.3545963777415 89.2362759057111 137.4896365436787C89.8519666953775 137.1623360110625 90.9483086947096 136.5374899658399 92.724428272601 135.3793498450199C96.338465549872 133.0241604996866 100.5041068279164 130.3370927009908 105.1092003726555 127.3959670000645C110.3002302729878 124.0863424094875 116.9881441637809 121.0971511774391 124.9783935968875 118.5176577780122C133.1471702203707 115.8763668430335 141.4784527764594 114.5351216110906 149.7479372110601 114.5351216110906C158.0174222315972 114.5351216110906 166.3509934550909 115.8763668430335 174.5151927437642 118.5153691106073C182.5123081790856 121.0994398448441 189.1979339884102 124.0863424094875 194.3958298909572 127.4005449208108C199.1084978349652 130.4126234128449 203.1574094581846 133.0218718322816 206.7714467354556 135.3793498450199C208.547566313347 136.5352007124986 209.6439083126791 137.1623360110625 210.2595991023455 137.4896365436787C215.3133001693356 137.3545963777415 219.9664586592605 136.4573813332396 224.1092120913826 134.8185905886903C228.5838433909309 133.0470483456087 232.3832738607932 130.6827037447193 235.3976421921051 127.7987982445347C238.6202921478669 124.7157657895199 241.540818670276 120.8865802996479 244.0791131267322 116.4188155882508C246.7410038261644 111.7381913316576 248.8879109611114 106.8744619639415 250.4580375819579 101.9695336532546C252.0991169939121 96.8425905418153 253.4792719154845 91.1892199429298 254.5595920711092 85.1673504543936C255.6536448171 79.0539289962324 256.3952205171474 73.3090058417854 256.7568534045832 68.0905101747848V68.0859328399749C257.1299302149801 62.7781732848177 257.3176126609128 57.230088417796 257.3199013283177 51.5927396626178C257.3176126609128 40.7826715182197 254.2643346399714 32.6207614828877 247.9815406610534 26.6423796047273zM247.9815406610534 26.6423796047274" />
    <glyph glyph-name="029-user-1-1"
      unicode="&#x30;&#x32;&#x39;&#x2D;&#x75;&#x73;&#x65;&#x72;&#x2D;&#x31;"
      horiz-adv-x="299.9994140636444" d="M147.861954566495 155.4888689670528C167.715126532956 155.4888689670528 184.9041185466435 162.6093685363896 198.9528584905108 176.6581084802569C212.9970205136318 190.7045591707829 220.1198093363099 207.8912625170654 220.1198093363099 227.7467231509314C220.1198093363099 247.5953171966461 212.9993091810368 264.78430979627 198.9505698231058 278.8353378216059C184.9018298792385 292.8794998447269 167.712837865551 300 147.861954566495 300C128.0064945185654 300 110.8197905863465 292.8794998447269 96.7733398958205 278.8330491542009S75.6041003826164 247.5976058640511 75.6041003826164 227.7467231509314C75.6041003826164 207.8912625170654 82.7268892052945 190.7022705033779 96.7733398958205 176.6558198128519C110.8243685070927 162.6116577897309 128.0133605207802 155.4888689670528 147.861954566495 155.4888689670528zM109.2061769410607 266.4025007763657C119.9842019839805 277.1805258192855 132.6276093210756 282.4196206648034 147.861954566495 282.4196206648034C163.0940111445095 282.4196206648034 175.7397083208822 277.1805258192855 186.5200214452706 266.4025007763657C197.2980459022541 255.6221876519773 202.5394300011133 242.9764910615409 202.5394300011133 227.7467231509314C202.5394300011133 212.5123779055119 197.2980459022541 199.8689699824805 186.5200214452706 189.0886568580921C175.7397083208822 178.3083431477673 163.0940111445095 173.0692483022494 147.861954566495 173.0692483022494C132.6321872418218 173.0692483022494 119.9887793187904 178.3106318151723 109.2061769410607 189.0886568580921C98.4258638166722 199.8666813150756 93.1844797178131 212.5123779055119 93.1844797178131 227.7467231509314C93.1844797178131 242.9764910615409 98.4258638166722 255.6221876519773 109.2061769410607 266.4025007763657zM109.2061769410607 266.4025007763657M274.2937451294041 69.3150257519029C273.8886252175289 75.1606567174674 273.069229552286 81.5372919193517 271.8630250722166 88.270982673862C270.6453760832498 95.0550264550265 269.0775381298083 101.4682832650718 267.2007113267357 107.3299354884073C265.2597971488337 113.388425999168 262.6253722160699 119.3713852121383 259.3638125706786 125.1048644436242C255.983234017121 131.0557805551161 252.0098531057557 136.2376551998922 247.5512436499147 140.5017150357128C242.8889299044338 144.9626137448951 237.1806277722114 148.5491852554976 230.5796891021697 151.1652990912127C224.0016376921139 153.7676809224982 216.7117656020203 155.0860377225826 208.9137765355927 155.0860377225826C205.8513432590952 155.0860377225826 202.8896183796516 153.8294784580499 197.1698723244681 150.1055787000416C193.6496768560999 147.809898222855 189.5321005232412 145.154874111574 184.9361622340581 142.2183257454576C181.0062689330685 139.7143630578847 175.6824875342041 137.3683289681075 169.1067253774895 135.2443096790827C162.6911799000393 133.1683559211799 156.1772158648128 132.1155009462872 149.7456485436552 132.1155009462872C143.3186591432439 132.1155009462872 136.8046951080174 133.1683559211799 130.3845722957573 135.2443096790827C123.8156761412575 137.3660403007026 118.4896060749881 139.7120743904797 114.5665793621497 142.2160370780526C110.0141280974061 145.1251196775007 105.8942630971424 147.7801437887817 102.3214247628423 150.1078673674466C96.606256628405 153.8317671254549 93.6445311630251 155.0883263899876 90.5820984724639 155.0883263899876C82.7818207386314 155.0883263899876 75.4942373159427 153.7676809224982 68.9184751592282 151.1630104238078C62.3221132380601 148.5514739229025 56.6115230243691 144.9649024123 51.9446313581419 140.4994263683079C47.486021902301 136.233077279146 43.5126409909356 131.0534913017749 40.1343516907194 125.1048644436242C36.8773693801379 119.3713852121383 34.2406557799692 113.3907146665729 32.2997416020672 107.3276468210023C30.4252028804631 101.4659945976668 28.857365512958 95.0550264550265 27.6397165239912 88.270982673862C26.4312227905805 81.5464471749079 25.6141163786789 75.1675227196822 25.2089964668038 69.3081591637517C24.8107425571434 63.5792578530121 24.6093269349083 57.616897818559 24.6093269349083 51.5927396626179C24.6093269349083 35.932675326806 29.5874972900444 23.254935048955 39.404219913633 13.9051304587296C49.0996355475868 4.6789215255439 61.9261485817411 0.0005859363556 77.5289927168111 0.0005859363556H221.9806148816116C237.5788816818717 0.0005859363556 250.405394716026 4.6789215255439 260.1030990173848 13.9051304587296C269.9221108943147 23.2480684608038 274.9002806635144 35.9303860734647 274.9002806635144 51.5950289159591C274.8979919961094 57.6397862504175 274.6942877064694 63.6021462848705 274.2937451294041 69.3150257519028zM247.9815406610534 26.6423796047274C241.5751504391593 20.5449794043371 233.0699186134402 17.5809652715523 221.9783262142066 17.5809652715523H77.5289927168111C66.4351116501726 17.5809652715523 57.9298798244535 20.5449794043371 51.5257782699643 26.6400909373224C45.2429842910463 32.6207614828878 42.1897062701049 40.784960771561 42.1897062701049 51.5927396626179C42.1897062701049 57.2140665740888 42.3751000486327 62.7644406944518 42.7458881916246 68.0927994281262C43.107520493124 73.3204497647466 43.8468075257666 79.0630842517886 44.9431495250986 85.1650617869887C46.0257583481282 91.1915086103348 47.4036246022957 96.8471678766253 49.042415346845 101.9672449858497C50.6148300491601 106.8767506313465 52.7594491026385 111.7381913316576 55.4190505487294 116.4211042556558C57.9573450051855 120.8842916322429 60.877872113531 124.713477122115 64.1005220692928 127.7987982445347C67.1148898146683 130.6849924121242 70.9143208704671 133.0470483456087 75.3912408374202 134.8185905886903C79.5317050162011 136.4573813332396 84.184863506126 137.3545963777415 89.2362759057111 137.4896365436787C89.8519666953775 137.1623360110625 90.9483086947096 136.5374899658399 92.724428272601 135.3793498450199C96.338465549872 133.0241604996866 100.5041068279164 130.3370927009908 105.1092003726555 127.3959670000645C110.3002302729878 124.0863424094875 116.9881441637809 121.0971511774391 124.9783935968875 118.5176577780122C133.1471702203707 115.8763668430335 141.4784527764594 114.5351216110906 149.7479372110601 114.5351216110906C158.0174222315972 114.5351216110906 166.3509934550909 115.8763668430335 174.5151927437642 118.5153691106073C182.5123081790856 121.0994398448441 189.1979339884102 124.0863424094875 194.3958298909572 127.4005449208108C199.1084978349652 130.4126234128449 203.1574094581846 133.0218718322816 206.7714467354556 135.3793498450199C208.547566313347 136.5352007124986 209.6439083126791 137.1623360110625 210.2595991023455 137.4896365436787C215.3133001693356 137.3545963777415 219.9664586592605 136.4573813332396 224.1092120913826 134.8185905886903C228.5838433909309 133.0470483456087 232.3832738607932 130.6827037447193 235.3976421921051 127.7987982445347C238.6202921478669 124.7157657895199 241.540818670276 120.8865802996479 244.0791131267322 116.4188155882508C246.7410038261644 111.7381913316576 248.8879109611114 106.8744619639415 250.4580375819579 101.9695336532546C252.0991169939121 96.8425905418153 253.4792719154845 91.1892199429298 254.5595920711092 85.1673504543936C255.6536448171 79.0539289962324 256.3952205171474 73.3090058417854 256.7568534045832 68.0905101747848V68.0859328399749C257.1299302149801 62.7781732848177 257.3176126609128 57.230088417796 257.3199013283177 51.5927396626178C257.3176126609128 40.7826715182197 254.2643346399714 32.6207614828877 247.9815406610534 26.6423796047273zM247.9815406610534 26.6423796047274" />
    <glyph glyph-name="030-user-2"
      unicode="&#xF11E;"
      horiz-adv-x="300" d="M150 300C106.3833984375 300 70.8984375 264.5150390625 70.8984375 220.8984375S106.3833984375 141.796875 150 141.796875S229.1015625 177.2818359375 229.1015625 220.8984375S193.6166015625 300 150 300zM150 159.375C116.0759765625 159.375 88.4765625 186.9744140625 88.4765625 220.8984375C88.4765625 254.8224609375 116.0759765625 282.421875 150 282.421875C183.9240234375 282.421875 211.5234375 254.8224609375 211.5234375 220.8984375C211.5234375 186.9744140625 183.9240234375 159.375 150 159.375zM248.417578125 90.1201171875C226.761328125 112.1091796875 198.0521484375 124.21875 167.578125 124.21875H132.421875C101.9484375 124.21875 73.238671875 112.1091796875 51.582421875 90.1201171875C30.0322265625 68.2388671875 18.1640625 39.3556640625 18.1640625 8.7890625C18.1640625 3.93515625 22.09921875 0 26.953125 0H273.046875C277.90078125 0 281.8359375 3.93515625 281.8359375 8.7890625C281.8359375 39.3556640625 269.9677734375 68.2388671875 248.417578125 90.1201171875zM36.12890625 17.578125C40.5322265625 67.433203125 82.0376953125 106.640625 132.421875 106.640625H167.578125C217.9623046875 106.640625 259.4677734375 67.433203125 263.87109375 17.578125H36.12890625z" />
    <glyph glyph-name="030-user-2-1"
      unicode="&#x30;&#x33;&#x30;&#x2D;&#x75;&#x73;&#x65;&#x72;&#x2D;&#x32;"
      horiz-adv-x="300" d="M150 300C106.3833984375 300 70.8984375 264.5150390625 70.8984375 220.8984375S106.3833984375 141.796875 150 141.796875S229.1015625 177.2818359375 229.1015625 220.8984375S193.6166015625 300 150 300zM150 159.375C116.0759765625 159.375 88.4765625 186.9744140625 88.4765625 220.8984375C88.4765625 254.8224609375 116.0759765625 282.421875 150 282.421875C183.9240234375 282.421875 211.5234375 254.8224609375 211.5234375 220.8984375C211.5234375 186.9744140625 183.9240234375 159.375 150 159.375zM248.417578125 90.1201171875C226.761328125 112.1091796875 198.0521484375 124.21875 167.578125 124.21875H132.421875C101.9484375 124.21875 73.238671875 112.1091796875 51.582421875 90.1201171875C30.0322265625 68.2388671875 18.1640625 39.3556640625 18.1640625 8.7890625C18.1640625 3.93515625 22.09921875 0 26.953125 0H273.046875C277.90078125 0 281.8359375 3.93515625 281.8359375 8.7890625C281.8359375 39.3556640625 269.9677734375 68.2388671875 248.417578125 90.1201171875zM36.12890625 17.578125C40.5322265625 67.433203125 82.0376953125 106.640625 132.421875 106.640625H167.578125C217.9623046875 106.640625 259.4677734375 67.433203125 263.87109375 17.578125H36.12890625z" />
    <glyph glyph-name="031-pinterest"
      unicode="&#xF11F;"
      horiz-adv-x="300" d="M154.0780152233401 300C71.8555716370072 300 28.1286073397828 247.3101330723841 28.1286073397828 189.8575521947275C28.1286073397828 163.2126052537516 43.0167761442409 129.9861126574045 66.8490967367675 119.4481392718813C70.4680093051055 117.8168159897808 72.43684774902 118.5105971557316 73.2431339689088 121.8669979315477C73.9556659771826 124.417112487475 77.0870566451227 136.6989142090367 78.6058748732853 142.4929244868422C79.0746459313602 144.3492578768187 78.8308849811613 145.9618303165962 77.3308175953217 147.7056586526348C69.4179621350178 156.8560697062563 63.1364299568145 173.5255685313989 63.1364299568145 189.1637710287767C63.1364299568145 229.234321073017 94.994111063583 268.1423188932315 149.2027962193614 268.1423188932315C196.0799020268489 268.1423188932315 228.8751252497671 237.6909509606877 228.8751252497671 194.1327442443704C228.8751252497671 144.9117831465085 202.8302052631271 110.8602534879497 168.9849348701212 110.8602534879497C150.2528433894492 110.8602534879497 136.3022167011409 125.5609138691777 140.7274154893677 143.7492309224829C146.0714055514213 165.4064538055421 156.5531264099755 188.6949999707018 156.5531264099755 204.3144516257566C156.5531264099755 218.3213308410339 148.6402709496716 229.9093513966448 132.4770448672499 229.9093513966448C113.407438224764 229.9093513966448 97.9379933082932 211.0272531773889 97.9379933082932 185.6761143566996C97.9379933082932 169.5691408012469 103.6382493744837 158.6936522539099 103.6382493744837 158.6936522539099S84.7749019975507 82.4902290532582 81.2684944831506 68.258339730105C75.3432283090842 44.1635073450565 82.0747807030394 5.1430044709039 82.6560568150523 1.7866036950878C83.0123228191892 -0.0697296948887 85.0936663170416 -0.6510058069015 86.2562185410673 0.8678124212611C88.1125519310438 3.3054219232504 110.9135761958057 35.8381333536468 117.307613427947 59.3516896266824C119.6327178759984 67.9208245682912 129.1768966184028 102.6661353928008 129.1768966184028 102.6661353928008C135.4584287966061 91.3218757873889 153.5904933229423 81.8151987296304 172.9038609156271 81.8151987296304C230.3564417932837 81.8151987296304 271.8708066963946 132.3112171054559 271.8708066963946 194.9765321489051C271.6645474308417 255.0542309517811 220.2497377811894 300 154.0780152233401 300z" />
    <glyph glyph-name="031-pinterest-1"
      unicode="&#x30;&#x33;&#x31;&#x2D;&#x70;&#x69;&#x6E;&#x74;&#x65;&#x72;&#x65;&#x73;&#x74;"
      horiz-adv-x="300" d="M154.0780152233401 300C71.8555716370072 300 28.1286073397828 247.3101330723841 28.1286073397828 189.8575521947275C28.1286073397828 163.2126052537516 43.0167761442409 129.9861126574045 66.8490967367675 119.4481392718813C70.4680093051055 117.8168159897808 72.43684774902 118.5105971557316 73.2431339689088 121.8669979315477C73.9556659771826 124.417112487475 77.0870566451227 136.6989142090367 78.6058748732853 142.4929244868422C79.0746459313602 144.3492578768187 78.8308849811613 145.9618303165962 77.3308175953217 147.7056586526348C69.4179621350178 156.8560697062563 63.1364299568145 173.5255685313989 63.1364299568145 189.1637710287767C63.1364299568145 229.234321073017 94.994111063583 268.1423188932315 149.2027962193614 268.1423188932315C196.0799020268489 268.1423188932315 228.8751252497671 237.6909509606877 228.8751252497671 194.1327442443704C228.8751252497671 144.9117831465085 202.8302052631271 110.8602534879497 168.9849348701212 110.8602534879497C150.2528433894492 110.8602534879497 136.3022167011409 125.5609138691777 140.7274154893677 143.7492309224829C146.0714055514213 165.4064538055421 156.5531264099755 188.6949999707018 156.5531264099755 204.3144516257566C156.5531264099755 218.3213308410339 148.6402709496716 229.9093513966448 132.4770448672499 229.9093513966448C113.407438224764 229.9093513966448 97.9379933082932 211.0272531773889 97.9379933082932 185.6761143566996C97.9379933082932 169.5691408012469 103.6382493744837 158.6936522539099 103.6382493744837 158.6936522539099S84.7749019975507 82.4902290532582 81.2684944831506 68.258339730105C75.3432283090842 44.1635073450565 82.0747807030394 5.1430044709039 82.6560568150523 1.7866036950878C83.0123228191892 -0.0697296948887 85.0936663170416 -0.6510058069015 86.2562185410673 0.8678124212611C88.1125519310438 3.3054219232504 110.9135761958057 35.8381333536468 117.307613427947 59.3516896266824C119.6327178759984 67.9208245682912 129.1768966184028 102.6661353928008 129.1768966184028 102.6661353928008C135.4584287966061 91.3218757873889 153.5904933229423 81.8151987296304 172.9038609156271 81.8151987296304C230.3564417932837 81.8151987296304 271.8708066963946 132.3112171054559 271.8708066963946 194.9765321489051C271.6645474308417 255.0542309517811 220.2497377811894 300 154.0780152233401 300z" />
    <glyph glyph-name="032-facebook-app-symbol"
      unicode="&#xF120;"
      horiz-adv-x="300" d="M173.2330361804575 0V136.8340649353161H219.1441223676832L226.0321389205809 190.1765513507242H173.2330361804575V224.2279504186568C173.2330361804575 239.6670082957864 177.5027555933711 250.1885405990757 199.6673950457332 250.1885405990757L227.8904724150601 250.2001430974804V297.9115502871619C223.0096880861679 298.5458201999498 206.255680389844 300 186.7557480710846 300C146.0367799199428 300 118.1598437530215 275.1455146674918 118.1598437530215 229.5109546922438V190.1765513507242H72.10952758494V136.8340649353161H118.1598437530215V0H173.2330361804575z" />
    <glyph glyph-name="032-facebook-app-symbol-1"
      unicode="&#x30;&#x33;&#x32;&#x2D;&#x66;&#x61;&#x63;&#x65;&#x62;&#x6F;&#x6F;&#x6B;&#x2D;&#x61;&#x70;&#x70;&#x2D;&#x73;&#x79;&#x6D;&#x62;&#x6F;&#x6C;"
      horiz-adv-x="300" d="M173.2330361804575 0V136.8340649353161H219.1441223676832L226.0321389205809 190.1765513507242H173.2330361804575V224.2279504186568C173.2330361804575 239.6670082957864 177.5027555933711 250.1885405990757 199.6673950457332 250.1885405990757L227.8904724150601 250.2001430974804V297.9115502871619C223.0096880861679 298.5458201999498 206.255680389844 300 186.7557480710846 300C146.0367799199428 300 118.1598437530215 275.1455146674918 118.1598437530215 229.5109546922438V190.1765513507242H72.10952758494V136.8340649353161H118.1598437530215V0H173.2330361804575z" />
    <glyph glyph-name="033-facebook"
      unicode="&#xF121;"
      horiz-adv-x="300" d="M199.9625 250.1875H227.35V297.8875C222.625 298.5375 206.375 300 187.45 300C147.9625 300 120.9125 275.1625 120.9125 229.5125V187.5H77.3375V134.175H120.9125V0H174.3375V134.1625H216.15L222.7875 187.4875H174.325V224.225C174.3375 239.6375 178.4875 250.1875 199.9625 250.1875z" />
    <glyph glyph-name="033-facebook-1"
      unicode="&#x30;&#x33;&#x33;&#x2D;&#x66;&#x61;&#x63;&#x65;&#x62;&#x6F;&#x6F;&#x6B;"
      horiz-adv-x="300" d="M199.9625 250.1875H227.35V297.8875C222.625 298.5375 206.375 300 187.45 300C147.9625 300 120.9125 275.1625 120.9125 229.5125V187.5H77.3375V134.175H120.9125V0H174.3375V134.1625H216.15L222.7875 187.4875H174.325V224.225C174.3375 239.6375 178.4875 250.1875 199.9625 250.1875z" />
    <glyph glyph-name="036-youtube-2"
      unicode="&#xF122;"
      horiz-adv-x="300" d="M293.3625 225.8875L293.7375 223.4375C290.1125 236.3 280.325 246.225 267.8875 249.8375L267.625 249.9C244.2375 256.25 150.125 256.25 150.125 256.25S56.25 256.375 32.625 249.9C19.95 246.225 10.15 236.3 6.5875 223.7L6.525 223.4375C-2.2125 177.8 -2.275 122.9625 6.9125 74.1L6.525 76.575C10.15 63.7125 19.9375 53.7875 32.375 50.175L32.6375 50.1125C56 43.75 150.1375000000001 43.75 150.1375000000001 43.75S244.0000000000001 43.75 267.6375000000001 50.1125C280.325 53.7875 290.125 63.7125 293.6875 76.3125L293.75 76.575C297.725 97.8 300 122.225 300 147.175C300 148.0875 300 149.0125 299.9875 149.9375C300 150.7875 300 151.8 300 152.8125C300 177.775 297.725 202.2 293.3625 225.8875zM120.1 104.3625V195.525L198.4250000000001 149.875z" />
    <glyph glyph-name="036-youtube-2-1"
      unicode="&#x30;&#x33;&#x36;&#x2D;&#x79;&#x6F;&#x75;&#x74;&#x75;&#x62;&#x65;&#x2D;&#x32;"
      horiz-adv-x="300" d="M293.3625 225.8875L293.7375 223.4375C290.1125 236.3 280.325 246.225 267.8875 249.8375L267.625 249.9C244.2375 256.25 150.125 256.25 150.125 256.25S56.25 256.375 32.625 249.9C19.95 246.225 10.15 236.3 6.5875 223.7L6.525 223.4375C-2.2125 177.8 -2.275 122.9625 6.9125 74.1L6.525 76.575C10.15 63.7125 19.9375 53.7875 32.375 50.175L32.6375 50.1125C56 43.75 150.1375000000001 43.75 150.1375000000001 43.75S244.0000000000001 43.75 267.6375000000001 50.1125C280.325 53.7875 290.125 63.7125 293.6875 76.3125L293.75 76.575C297.725 97.8 300 122.225 300 147.175C300 148.0875 300 149.0125 299.9875 149.9375C300 150.7875 300 151.8 300 152.8125C300 177.775 297.725 202.2 293.3625 225.8875zM120.1 104.3625V195.525L198.4250000000001 149.875z" />
    <glyph glyph-name="037-youtube-symbol"
      unicode="&#xF123;"
      horiz-adv-x="300" d="M294.816 220.9145806451613C291.1432258064516 236.8691612903226 278.0934193548387 248.64 262.3834838709677 250.395870967742C225.1819354838709 254.5486451612903 187.5282580645161 254.5703225806452 150.048 254.5486451612903C112.5615483870968 254.5703225806452 74.9016774193548 254.5486451612903 37.700129032258 250.395870967742C21.9994838709677 248.64 8.9589677419355 236.8691612903226 5.2861935483871 220.9145806451613C0.0588387096774 198.1935483870968 0 173.3914838709678 0 149.9984516129032C0 126.6054193548387 0 101.8064516129032 5.2273548387097 79.0885161290323C8.893935483871 63.1370322580646 21.9375483870968 51.3661935483871 37.6474838709677 49.6072258064516C74.845935483871 45.4513548387097 112.5027096774194 45.4296774193548 149.9891612903226 45.4513548387097C187.4818064516129 45.4296774193548 225.1292903225806 45.4513548387097 262.3246451612904 49.6072258064516C278.0252903225807 51.3630967741936 291.0781935483871 63.133935483871 294.7509677419355 79.0885161290323C299.9814193548387 101.8095483870968 300 126.6085161290323 300 149.9984516129032C300 173.3914838709678 300.0433548387097 198.1935483870968 294.816 220.9145806451613zM111.2856774193548 103.4353548387097C111.2856774193548 136.6203870967742 111.2856774193548 169.4585806451613 111.2856774193548 202.6467096774194C143.0802580645161 186.0572903225807 174.6642580645161 169.5793548387097 206.6601290322581 152.8877419354839C174.7633548387097 136.3447741935484 143.1638709677419 119.965935483871 111.2856774193548 103.4353548387097z" />
    <glyph glyph-name="037-youtube-symbol-1"
      unicode="&#x30;&#x33;&#x37;&#x2D;&#x79;&#x6F;&#x75;&#x74;&#x75;&#x62;&#x65;&#x2D;&#x73;&#x79;&#x6D;&#x62;&#x6F;&#x6C;"
      horiz-adv-x="300" d="M294.816 220.9145806451613C291.1432258064516 236.8691612903226 278.0934193548387 248.64 262.3834838709677 250.395870967742C225.1819354838709 254.5486451612903 187.5282580645161 254.5703225806452 150.048 254.5486451612903C112.5615483870968 254.5703225806452 74.9016774193548 254.5486451612903 37.700129032258 250.395870967742C21.9994838709677 248.64 8.9589677419355 236.8691612903226 5.2861935483871 220.9145806451613C0.0588387096774 198.1935483870968 0 173.3914838709678 0 149.9984516129032C0 126.6054193548387 0 101.8064516129032 5.2273548387097 79.0885161290323C8.893935483871 63.1370322580646 21.9375483870968 51.3661935483871 37.6474838709677 49.6072258064516C74.845935483871 45.4513548387097 112.5027096774194 45.4296774193548 149.9891612903226 45.4513548387097C187.4818064516129 45.4296774193548 225.1292903225806 45.4513548387097 262.3246451612904 49.6072258064516C278.0252903225807 51.3630967741936 291.0781935483871 63.133935483871 294.7509677419355 79.0885161290323C299.9814193548387 101.8095483870968 300 126.6085161290323 300 149.9984516129032C300 173.3914838709678 300.0433548387097 198.1935483870968 294.816 220.9145806451613zM111.2856774193548 103.4353548387097C111.2856774193548 136.6203870967742 111.2856774193548 169.4585806451613 111.2856774193548 202.6467096774194C143.0802580645161 186.0572903225807 174.6642580645161 169.5793548387097 206.6601290322581 152.8877419354839C174.7633548387097 136.3447741935484 143.1638709677419 119.965935483871 111.2856774193548 103.4353548387097z" />
    <glyph glyph-name="038-skype"
      unicode="&#xF124;"
      horiz-adv-x="300" d="M291.3625 118.1625C313.0875000000001 215.7875 227.5625 304.475 127.125 287.45C72.6 321.2875 0 283.05 0 218.175C0 203.0875 4.1625 188.9625 11.4 176.7875C-8.7875 78.9375 77.4375 -8.475 177.7875 9.7125C248.725 -27.8 327.1125 47.0125 291.3625 118.1625zM195.8875 59.2875C169.5375 48.45 126.175 48.3875 99.9375 62.125C62.525 82.075 55.875 126.9875 88.15 126.9875C112.475 126.9875 104.775 98.625 129.3375 87.0625C140.6125 81.85 164.85 81.3125 178.9375 90.8125C192.85 100.125 191.575 114.775 184.0125 121.775C163.975 140.275 106.6375 132.925 80.425 165.3125C69.0375 179.3625 66.8875 204.15 80.8875 222.125C105.2875 253.525 176.8875 255.4375 207.675 231.725C236.1 209.725 228.425 180.525 205.4875 180.525C177.9 180.525 192.4 216.625 147.8625 216.625C115.575 216.625 102.875 193.6625 125.6125 182.4875C156.4375 167.175 234.9875 172.2875 234.9875 112.45C234.925 87.55 219.6625 68.9875 195.8875 59.2875z" />
    <glyph glyph-name="038-skype-1"
      unicode="&#x30;&#x33;&#x38;&#x2D;&#x73;&#x6B;&#x79;&#x70;&#x65;"
      horiz-adv-x="300" d="M291.3625 118.1625C313.0875000000001 215.7875 227.5625 304.475 127.125 287.45C72.6 321.2875 0 283.05 0 218.175C0 203.0875 4.1625 188.9625 11.4 176.7875C-8.7875 78.9375 77.4375 -8.475 177.7875 9.7125C248.725 -27.8 327.1125 47.0125 291.3625 118.1625zM195.8875 59.2875C169.5375 48.45 126.175 48.3875 99.9375 62.125C62.525 82.075 55.875 126.9875 88.15 126.9875C112.475 126.9875 104.775 98.625 129.3375 87.0625C140.6125 81.85 164.85 81.3125 178.9375 90.8125C192.85 100.125 191.575 114.775 184.0125 121.775C163.975 140.275 106.6375 132.925 80.425 165.3125C69.0375 179.3625 66.8875 204.15 80.8875 222.125C105.2875 253.525 176.8875 255.4375 207.675 231.725C236.1 209.725 228.425 180.525 205.4875 180.525C177.9 180.525 192.4 216.625 147.8625 216.625C115.575 216.625 102.875 193.6625 125.6125 182.4875C156.4375 167.175 234.9875 172.2875 234.9875 112.45C234.925 87.55 219.6625 68.9875 195.8875 59.2875z" />
    <glyph glyph-name="040-skype-2"
      unicode="&#xF125;"
      horiz-adv-x="300" d="M219.140625 0C202.821350390625 0 187.3100279296875 4.7515869140625 173.9501953125 13.7969970703125C130.666351171875 6.23016328125 85.219573828125 19.221496875 52.219391015625 52.219391015625C19.2352294921875 85.2058412109375 6.227874609375 130.648040625 13.7969970703125 173.9501953125C4.7515869140625 187.3100279296875 0 202.821350390625 0 219.140625C0 263.726806640625 36.273193359375 300 80.859375 300C97.178649609375 300 112.6899720703125 295.2484130859375 126.0498046875 286.2030029296875C220.4017640625 302.696227734375 302.7580259765625 220.7450865234375 286.2030029296875 126.0498046875C295.2484130859375 112.6899720703125 300 97.178649609375 300 80.859375C300 36.273193359375 263.726806640625 0 219.140625 0zM183.90655546875 35.51788359375C194.059753125 27.614593359375 206.2431333984375 23.4375 219.140625 23.4375C250.80184921875 23.4375 276.5625 49.195862109375 276.5625 80.859375C276.5625 93.7568666015625 272.3854066406251 105.940246875 264.48211640625 116.09344453125C262.353515625 118.8285826171875 261.54327421875 122.364807421875 262.2734068359375 125.75225859375C279.8423765625 207.5431822265625 206.9755552734375 279.7233580078125 125.75225859375 262.2734068359375C122.36709609375 261.545562890625 118.8285826171875 262.353515625 116.09344453125 264.48211640625C105.940246875 272.385406640625 93.7568666015625 276.5625 80.859375 276.5625C49.19815078125 276.5625 23.4375 250.804137890625 23.4375 219.140625C23.4375 206.2431333984375 27.614593359375 194.059753125 35.51788359375 183.90655546875C37.646484375 181.1714173828125 38.45672578125 177.635192578125 37.7265931640625 174.24774140625C20.196533203125 92.6399232421875 92.83447265625 20.237731640625 174.2477414062501 37.7265931640625C177.6191712890625 38.4521484374999 181.1599734375001 37.6556396484374 183.9065554687501 35.51788359375zM207.8132630859375 115.4296875C207.8132630859375 147.07488984375 167.8070068359375 156.7474365234375 158.8531494140625 159.4963072265625C140.3045654296875 165.1885986328125 115.6242369140625 171.535491796875 115.6242369140625 184.5703125C115.6242369140625 196.9573974609375 131.3667298828125 207.421875 150 207.421875C164.8246763671875 207.421875 178.34014921875 200.7087708984375 182.8697203125 191.0980224609375C185.630035546875 185.2455140625 192.6132199218751 182.73468046875 198.468017578125 185.4949951171875C204.3205259765625 188.255309765625 206.8290708984375 195.2362060546875 204.071044921875 201.091003125C194.8493958984375 220.6535337890625 171.917724609375 230.859375 150 230.859375C115.901184375 230.859375 92.1867369140625 208.685302734375 92.1867369140625 184.5703125C92.1867369140625 152.92511015625 132.1929931640625 143.2525634765625 141.1468505859375 140.5036927734375C159.6954345703125 134.8114013671875 184.3757630859375 128.464508203125 184.3757630859375 115.4296875C184.3757630859375 103.0426025390625 168.6332701171875 92.578125 150 92.578125C135.1753236328125 92.578125 121.65985078125 99.2912291015625 117.1302796875 108.9019775390625C114.369964453125 114.7544859375 107.386780078125 117.26531953125 101.531982421875 114.5050048828125C95.6794740234375 111.744690234375 93.1709291015625 104.7637939453125 95.928955078125 98.908996875C105.1506041015625 79.3464662109375 128.082275390625 69.140625 150 69.140625C184.098815625 69.140625 207.8132630859375 91.314697265625 207.8132630859375 115.4296875zM207.8132630859375 115.4296875" />
    <glyph glyph-name="040-skype-2-1"
      unicode="&#x30;&#x34;&#x30;&#x2D;&#x73;&#x6B;&#x79;&#x70;&#x65;&#x2D;&#x32;"
      horiz-adv-x="300" d="M219.140625 0C202.821350390625 0 187.3100279296875 4.7515869140625 173.9501953125 13.7969970703125C130.666351171875 6.23016328125 85.219573828125 19.221496875 52.219391015625 52.219391015625C19.2352294921875 85.2058412109375 6.227874609375 130.648040625 13.7969970703125 173.9501953125C4.7515869140625 187.3100279296875 0 202.821350390625 0 219.140625C0 263.726806640625 36.273193359375 300 80.859375 300C97.178649609375 300 112.6899720703125 295.2484130859375 126.0498046875 286.2030029296875C220.4017640625 302.696227734375 302.7580259765625 220.7450865234375 286.2030029296875 126.0498046875C295.2484130859375 112.6899720703125 300 97.178649609375 300 80.859375C300 36.273193359375 263.726806640625 0 219.140625 0zM183.90655546875 35.51788359375C194.059753125 27.614593359375 206.2431333984375 23.4375 219.140625 23.4375C250.80184921875 23.4375 276.5625 49.195862109375 276.5625 80.859375C276.5625 93.7568666015625 272.3854066406251 105.940246875 264.48211640625 116.09344453125C262.353515625 118.8285826171875 261.54327421875 122.364807421875 262.2734068359375 125.75225859375C279.8423765625 207.5431822265625 206.9755552734375 279.7233580078125 125.75225859375 262.2734068359375C122.36709609375 261.545562890625 118.8285826171875 262.353515625 116.09344453125 264.48211640625C105.940246875 272.385406640625 93.7568666015625 276.5625 80.859375 276.5625C49.19815078125 276.5625 23.4375 250.804137890625 23.4375 219.140625C23.4375 206.2431333984375 27.614593359375 194.059753125 35.51788359375 183.90655546875C37.646484375 181.1714173828125 38.45672578125 177.635192578125 37.7265931640625 174.24774140625C20.196533203125 92.6399232421875 92.83447265625 20.237731640625 174.2477414062501 37.7265931640625C177.6191712890625 38.4521484374999 181.1599734375001 37.6556396484374 183.9065554687501 35.51788359375zM207.8132630859375 115.4296875C207.8132630859375 147.07488984375 167.8070068359375 156.7474365234375 158.8531494140625 159.4963072265625C140.3045654296875 165.1885986328125 115.6242369140625 171.535491796875 115.6242369140625 184.5703125C115.6242369140625 196.9573974609375 131.3667298828125 207.421875 150 207.421875C164.8246763671875 207.421875 178.34014921875 200.7087708984375 182.8697203125 191.0980224609375C185.630035546875 185.2455140625 192.6132199218751 182.73468046875 198.468017578125 185.4949951171875C204.3205259765625 188.255309765625 206.8290708984375 195.2362060546875 204.071044921875 201.091003125C194.8493958984375 220.6535337890625 171.917724609375 230.859375 150 230.859375C115.901184375 230.859375 92.1867369140625 208.685302734375 92.1867369140625 184.5703125C92.1867369140625 152.92511015625 132.1929931640625 143.2525634765625 141.1468505859375 140.5036927734375C159.6954345703125 134.8114013671875 184.3757630859375 128.464508203125 184.3757630859375 115.4296875C184.3757630859375 103.0426025390625 168.6332701171875 92.578125 150 92.578125C135.1753236328125 92.578125 121.65985078125 99.2912291015625 117.1302796875 108.9019775390625C114.369964453125 114.7544859375 107.386780078125 117.26531953125 101.531982421875 114.5050048828125C95.6794740234375 111.744690234375 93.1709291015625 104.7637939453125 95.928955078125 98.908996875C105.1506041015625 79.3464662109375 128.082275390625 69.140625 150 69.140625C184.098815625 69.140625 207.8132630859375 91.314697265625 207.8132630859375 115.4296875zM207.8132630859375 115.4296875" />
    </font>
</defs>
</svg>
